  0
SECTION
  2
HEADER
  9
$ACADVER
  1
AC1006
  9
$INSBASE
 10
67.101563
 20
248.531250
 30
0.0
  9
$EXTMIN
 10
67.101563
 20
248.531250
  9
$EXTMAX
 10
277.101563
 20
545.531250
  9
$LIMMIN
 10
67.101563
 20
248.531250
  9
$LIMMAX
 10
277.101563
 20
545.531250
  9
$VIEWCTR
 10
172.101563
 20
397.031250
  9
$VIEWSIZE
 40
297.000000
  9
$SNAPMODE
 70
     0
  9
$SNAPUNIT
 10
1.0
 20
1.0
  9
$SNAPBASE
 10
0.0
 20
0.0
  9
$SNAPANG
 50
0.0
  9
$SNAPSTYLE
 70
     0
  9
$SNAPISOPAIR
 70
     0
  9
$GRIDMODE
 70
     0
  9
$GRIDUNIT
 10
0.0
 20
0.0
  9
$ORTHOMODE
 70
     0
  9
$REGENMODE
 70
     1
  9
$FILLMODE
 70
     1
  9
$QTEXTMODE
 70
     0
  9
$DRAGMODE
 70
     2
  9
$LTSCALE
 40
15.000000
  9
$OSMODE
 70
     0
  9
$ATTMODE
 70
     1
  9
$TEXTSIZE
 40
0.2
  9
$TRACEWID
 40
0.05
  9
$TEXTSTYLE
  7
STANDARD
  9
$CLAYER
  8
CSLAYER3
  9
$CELTYPE
  6
BYLAYER
  9
$CECOLOR
 62
   256
  9
$DIMSCALE
 40
1.0
  9
$DIMASZ
 40
0.18
  9
$DIMEXO
 40
0.0625
  9
$DIMDLI
 40
0.38
  9
$DIMRND
 40
0.0
  9
$DIMDLE
 40
0.0
  9
$DIMEXE
 40
0.18
  9
$DIMTP
 40
0.0
  9
$DIMTM
 40
0.0
  9
$DIMTXT
 40
0.18
  9
$DIMCEN
 40
0.09
  9
$DIMTSZ
 40
0.0
  9
$DIMTOL
 70
     0
  9
$DIMLIM
 70
     0
  9
$DIMTIH
 70
     1
  9
$DIMTOH
 70
     1
  9
$DIMSE1
 70
     0
  9
$DIMSE2
 70
     0
  9
$DIMTAD
 70
     0
  9
$DIMZIN
 70
     0
  9
$DIMBLK
  1

  9
$LUNITS
 70
     2
  9
$LUPREC
 70
     4
  9
$AXISMODE
 70
     0
  9
$AXISUNIT
 10
0.0
 20
0.0
  9
$SKETCHINC
 40
0.1
  9
$FILLETRAD
 40
0.0
  9
$AUNITS
 70
     0
  9
$AUPREC
 70
     0
  9
$MENU
  1
ACAD
  9
$ELEVATION
 40
0.0
  9
$THICKNESS
 40
0.0
  9
$VIEWDIR
 10
0.0
 20
0.0
 30
1.0
  9
$LIMCHECK
 70
     0
  9
$BLIPMODE
 70
     1
  9
$CHAMFERA
 40
0.0
  9
$CHAMFERB
 40
0.0
  9
$FASTZOOM
 70
     1
  9
$SKPOLY
 70
     0
  9
$TDCREATE
 40
0.000000
  9
$TDUPDATE
 40
0.000000
  9
$TDINDWG
 40
0.0
  9
$TDUSRTIMER
 40
0.0
  9
$USRTIMER
 70
     1
  9
$ANGBASE
 50
0.0
  9
$ANGDIR
 70
     0
  9
$PDMODE
 70
     0
  9
$PDSIZE
 40
0.0
  9
$PLINEWID
 40
0.0
  9
$COORDS
 70
     0
  9
$USERI1
 70
     0
  9
$USERI2
 70
     0
  9
$USERI3
 70
     0
  9
$USERI4
 70
     0
  9
$USERI5
 70
     0
  9
$USERR1
 40
0.0
  9
$USERR2
 40
0.0
  9
$USERR3
 40
0.0
  9
$USERR4
 40
0.0
  9
$USERR5
 40
0.0
  0
ENDSEC
  0
SECTION
  2
TABLES
  0
TABLE
  2
LTYPE
 70
     9
  0
LTYPE
  2
CONTINUOUS
 70
    64
  3
Solid line
 72
    65
 73
     0
 40
0.0
  0
LTYPE
  2
DASHED
 70
    64
  3
__ __ __ __ __ __ __ __ __ __ __ __ __ __ __
 72
    65
 73
     2
 40
0.75
 49
0.5
 49
-0.25
  0
LTYPE
  2
HIDDEN
 70
    64
  3
_ _ _ _ _ _ _ _ _ _ _ _ _ _ _ _ _ _ _ _ _ _ _
 72
    65
 73
     2
 40
0.375
 49
0.25
 49
-0.125
  0
LTYPE
  2
DOT
 70
    64
  3
...............................................
 72
    65
 73
     2
 40
0.25
 49
0.0
 49
-0.25
  0
LTYPE
  2
DASHDOT
 70
    64
  3
__ . __ . __ . __ . __ . __ . __ . __ . __ . __
 72
    65
 73
     4
 40
1.0
 49
0.5
 49
-0.25
 49
0.0
 49
-0.25
  0
LTYPE
  2
DIVIDE
 70
    64
  3
__ . . __ . . __ . . __ . . __ . . __ . . __
 72
    65
 73
     6
 40
1.25
 49
0.5
 49
-0.25
 49
0.0
 49
-0.25
 49
0.0
 49
-0.25
  0
LTYPE
  2
CENTER
 70
    64
  3
____ _ ____ _ ____ _ ____ _ ____ _ ____ _ ____ 
 72
    65
 73
     4
 40
2.0
 49
1.25
 49
-0.25
 49
0.25
 49
-0.25
  0
LTYPE
  2
PHANTOM
 70
    64
  3
______  __  __  ______  __  __  ______  __  __ 
 72
    65
 73
     6
 40
2.5
 49
1.25
 49
-0.25
 49
0.25
 49
-0.25
 49
0.25
 49
-0.25
  0
LTYPE
  2
BORDER
 70
    64
  3
__ __ . __ __ . __ __ . __ __ . __ __ . __ __ .
 72
    65
 73
     6
 40
1.75
 49
0.5
 49
-0.25
 49
0.5
 49
-0.25
 49
0.0
 49
-0.25
  0
ENDTAB
  0
TABLE
  2
LAYER
 70
    16
  0
LAYER
  2
CSLAYER1
 70
    64
 62
     7
  6
CONTINUOUS
  0
LAYER
  2
CSLAYER2
 70
    64
 62
     7
  6
CONTINUOUS
  0
LAYER
  2
CSLAYER3
 70
    64
 62
     7
  6
CONTINUOUS
  0
LAYER
  2
CSLAYER4
 70
    64
 62
     7
  6
CONTINUOUS
  0
LAYER
  2
CSLAYER5
 70
    64
 62
     7
  6
CONTINUOUS
  0
LAYER
  2
CSLAYER6
 70
    64
 62
     7
  6
CONTINUOUS
  0
LAYER
  2
CSLAYER7
 70
    64
 62
     7
  6
CONTINUOUS
  0
LAYER
  2
CSLAYER8
 70
    64
 62
     7
  6
CONTINUOUS
  0
LAYER
  2
CSLAYER9
 70
    64
 62
     7
  6
CONTINUOUS
  0
LAYER
  2
CSLAYER10
 70
    64
 62
     7
  6
CONTINUOUS
  0
LAYER
  2
CSLAYER11
 70
    64
 62
     7
  6
CONTINUOUS
  0
LAYER
  2
CSLAYER12
 70
    64
 62
     7
  6
CONTINUOUS
  0
LAYER
  2
CSLAYER13
 70
    64
 62
     7
  6
CONTINUOUS
  0
LAYER
  2
CSLAYER14
 70
    64
 62
     7
  6
CONTINUOUS
  0
LAYER
  2
CSLAYER15
 70
    64
 62
     7
  6
CONTINUOUS
  0
LAYER
  2
CSLAYER16
 70
    64
 62
     7
  6
CONTINUOUS
  0
ENDTAB
  0
TABLE
  2
STYLE
 70
     1
  0
STYLE
  2
SX_FONT
 70
     0
 40
1.0
 41
1.0
 50
0.0
 71
     0
 42
1.0
  3
monotxt
  4
bigfont
  0
ENDTAB
  0
TABLE
  2
VIEW
 70
     0
  0
ENDTAB
  0
ENDSEC
  0
SECTION
  2
BLOCKS
  0
BLOCK
  8
CSLAYER1
  2
*D0000
 70
    65
 10
0.0
 20
0.0
 30
0.0
  0
LINE
  8
CSLAYER1
  6
CONTINUOUS
 62
     7
 10
67.959273
 20
181.950361
 11
67.959273
 21
187.950361
  0
LINE
  8
CSLAYER1
  6
CONTINUOUS
 62
     7
 10
127.959273
 20
181.950361
 11
127.959273
 21
187.950361
  0
LINE
  8
CSLAYER1
  6
CONTINUOUS
 62
     7
 10
67.959273
 20
186.950361
 11
127.959273
 21
186.950361
  0
LINE
  8
CSLAYER1
  6
CONTINUOUS
 62
     7
 10
67.959273
 20
186.950361
 11
71.822976
 21
187.985637
  0
LINE
  8
CSLAYER1
  6
CONTINUOUS
 62
     7
 10
67.959273
 20
186.950361
 11
71.822976
 21
185.915085
  0
LINE
  8
CSLAYER1
  6
CONTINUOUS
 62
     7
 10
127.959273
 20
186.950361
 11
124.095570
 21
187.985637
  0
LINE
  8
CSLAYER1
  6
CONTINUOUS
 62
     7
 10
127.959273
 20
186.950361
 11
124.095570
 21
185.915085
  0
TEXT
  8
CSLAYER1
 62
     7
 10
94.959274
 20
187.950363
 40
4.000000
 41
0.900000
  1
60
 50
0.000000
 51
0.000000
  7
SX_FONT
 72
     5
 11
100.959274
 21
187.950363
  0
ENDBLK
  8
0
  0
BLOCK
  8
CSLAYER1
  2
*D0001
 70
    65
 10
0.0
 20
0.0
 30
0.0
  0
LINE
  8
CSLAYER1
  6
CONTINUOUS
 62
     7
 10
133.233613
 20
155.835691
 11
139.233613
 21
155.835691
  0
LINE
  8
CSLAYER1
  6
CONTINUOUS
 62
     7
 10
133.233613
 20
176.835691
 11
139.233613
 21
176.835691
  0
LINE
  8
CSLAYER1
  6
CONTINUOUS
 62
     7
 10
138.233613
 20
155.835691
 11
138.233613
 21
176.835691
  0
LINE
  8
CSLAYER1
  6
CONTINUOUS
 62
     7
 10
138.233613
 20
155.835691
 11
137.198337
 21
159.699394
  0
LINE
  8
CSLAYER1
  6
CONTINUOUS
 62
     7
 10
138.233613
 20
155.835691
 11
139.268890
 21
159.699394
  0
LINE
  8
CSLAYER1
  6
CONTINUOUS
 62
     7
 10
138.233613
 20
176.835691
 11
137.198337
 21
172.971988
  0
LINE
  8
CSLAYER1
  6
CONTINUOUS
 62
     7
 10
138.233613
 20
176.835691
 11
139.268890
 21
172.971988
  0
TEXT
  8
CSLAYER1
 62
     7
 10
143.218613
 20
163.051727
 40
4.000000
 41
0.900000
  1
21
 50
90.000000
 51
0.000000
  7
SX_FONT
 72
     5
 11
143.218613
 21
169.051727
  0
ENDBLK
  8
0
  0
ENDSEC
  0
SECTION
  2
ENTITIES
  0
ARC
  8
CSLAYER2
  6
CONTINUOUS
 62
     7
 10
97.959273
 20
114.835691
 40
62.000000
 50
65.831141
 51
114.093406
  0
LINE
  8
CSLAYER2
  6
CONTINUOUS
 62
     7
 10
127.959273
 20
155.835691
 11
67.959273
 21
155.835691
  0
LINE
  8
CSLAYER2
  6
CONTINUOUS
 62
     7
 10
67.959273
 20
155.835691
 11
67.959273
 21
163.835691
  0
ARC
  8
CSLAYER2
  6
CONTINUOUS
 62
     7
 10
75.953125
 20
164.149266
 40
8.000000
 50
114.979405
 51
182.246394
  0
LINE
  8
CSLAYER2
  6
CONTINUOUS
 62
     7
 10
127.959273
 20
163.835691
 11
127.959273
 21
155.835691
  0
ARC
  8
CSLAYER2
  6
CONTINUOUS
 62
     7
 10
119.965421
 20
164.149266
 40
8.000000
 50
-2.246394
 51
65.020595
  0
DIMENSION
  8
CSLAYER1
 62
     7
  2
*D0000
 10
127.959273
 20
186.950361
 11
97.959274
 21
187.950363
 13
67.959273
 23
180.950361
 14
127.959273
 24
180.950361
 70
1
  0
DIMENSION
  8
CSLAYER1
 62
     7
  2
*D0001
 10
138.233613
 20
176.835691
 11
143.218613
 21
166.051727
 13
132.233613
 23
155.835691
 14
132.233613
 24
176.835691
 50
90.000000
 70
1
  0
TEXT
  8
CSLAYER1
 62
     7
 10
68.065918
 20
93.683792
 40
12.000000
 41
0.695652
  1
FHR-5040
 50
0.000000
 51
0.000000
  7
SX_FONT
 72
     5
 11
132.065918
 21
93.683792
  0
TEXT
  8
CSLAYER1
 62
     7
 10
68.747826
 20
79.085004
 40
5.547002
 41
0.589931
  1
カタログ Vol. 1  P87
 50
0.000000
 51
0.000000
  7
SX_FONT
 72
     5
 11
120.014610
 21
79.085004
  0
TEXT
  8
CSLAYER1
 62
     7
 10
141.320633
 20
94.096497
 40
12.000000
 41
0.714286
  1
60x21
 50
0.000000
 51
0.000000
  7
SX_FONT
 72
     5
 11
181.320633
 21
94.096497
  0
TEXT
  8
CSLAYER1
 62
     7
 10
68.527991
 20
68.679511
 40
4.960742
 41
0.729057
  1
ホ%%dケットカタロク゛ Vol. 1 P61
 50
0.000000
 51
0.000000
  7
SX_FONT
 72
     5
 11
143.272348
 21
68.679511
  0
ENDSEC
  0
EOF
