  0
SECTION
  2
HEADER
  9
$ACADVER
  1
AC1006
  9
$INSBASE
 10
69.997925
 20
207.471924
 30
0.0
  9
$EXTMIN
 10
69.997925
 20
207.471924
  9
$EXTMAX
 10
279.997925
 20
504.471924
  9
$LIMMIN
 10
69.997925
 20
207.471924
  9
$LIMMAX
 10
279.997925
 20
504.471924
  9
$VIEWCTR
 10
174.997925
 20
355.971924
  9
$VIEWSIZE
 40
297.000000
  9
$SNAPMODE
 70
     0
  9
$SNAPUNIT
 10
1.0
 20
1.0
  9
$SNAPBASE
 10
0.0
 20
0.0
  9
$SNAPANG
 50
0.0
  9
$SNAPSTYLE
 70
     0
  9
$SNAPISOPAIR
 70
     0
  9
$GRIDMODE
 70
     0
  9
$GRIDUNIT
 10
0.0
 20
0.0
  9
$ORTHOMODE
 70
     0
  9
$REGENMODE
 70
     1
  9
$FILLMODE
 70
     1
  9
$QTEXTMODE
 70
     0
  9
$DRAGMODE
 70
     2
  9
$LTSCALE
 40
15.000000
  9
$OSMODE
 70
     0
  9
$ATTMODE
 70
     1
  9
$TEXTSIZE
 40
0.2
  9
$TRACEWID
 40
0.05
  9
$TEXTSTYLE
  7
STANDARD
  9
$CLAYER
  8
CSLAYER3
  9
$CELTYPE
  6
BYLAYER
  9
$CECOLOR
 62
   256
  9
$DIMSCALE
 40
1.0
  9
$DIMASZ
 40
0.18
  9
$DIMEXO
 40
0.0625
  9
$DIMDLI
 40
0.38
  9
$DIMRND
 40
0.0
  9
$DIMDLE
 40
0.0
  9
$DIMEXE
 40
0.18
  9
$DIMTP
 40
0.0
  9
$DIMTM
 40
0.0
  9
$DIMTXT
 40
0.18
  9
$DIMCEN
 40
0.09
  9
$DIMTSZ
 40
0.0
  9
$DIMTOL
 70
     0
  9
$DIMLIM
 70
     0
  9
$DIMTIH
 70
     1
  9
$DIMTOH
 70
     1
  9
$DIMSE1
 70
     0
  9
$DIMSE2
 70
     0
  9
$DIMTAD
 70
     0
  9
$DIMZIN
 70
     0
  9
$DIMBLK
  1

  9
$LUNITS
 70
     2
  9
$LUPREC
 70
     4
  9
$AXISMODE
 70
     0
  9
$AXISUNIT
 10
0.0
 20
0.0
  9
$SKETCHINC
 40
0.1
  9
$FILLETRAD
 40
0.0
  9
$AUNITS
 70
     0
  9
$AUPREC
 70
     0
  9
$MENU
  1
ACAD
  9
$ELEVATION
 40
0.0
  9
$THICKNESS
 40
0.0
  9
$VIEWDIR
 10
0.0
 20
0.0
 30
1.0
  9
$LIMCHECK
 70
     0
  9
$BLIPMODE
 70
     1
  9
$CHAMFERA
 40
0.0
  9
$CHAMFERB
 40
0.0
  9
$FASTZOOM
 70
     1
  9
$SKPOLY
 70
     0
  9
$TDCREATE
 40
0.000000
  9
$TDUPDATE
 40
0.000000
  9
$TDINDWG
 40
0.0
  9
$TDUSRTIMER
 40
0.0
  9
$USRTIMER
 70
     1
  9
$ANGBASE
 50
0.0
  9
$ANGDIR
 70
     0
  9
$PDMODE
 70
     0
  9
$PDSIZE
 40
0.0
  9
$PLINEWID
 40
0.0
  9
$COORDS
 70
     0
  9
$USERI1
 70
     0
  9
$USERI2
 70
     0
  9
$USERI3
 70
     0
  9
$USERI4
 70
     0
  9
$USERI5
 70
     0
  9
$USERR1
 40
0.0
  9
$USERR2
 40
0.0
  9
$USERR3
 40
0.0
  9
$USERR4
 40
0.0
  9
$USERR5
 40
0.0
  0
ENDSEC
  0
SECTION
  2
TABLES
  0
TABLE
  2
LTYPE
 70
     9
  0
LTYPE
  2
CONTINUOUS
 70
    64
  3
Solid line
 72
    65
 73
     0
 40
0.0
  0
LTYPE
  2
DASHED
 70
    64
  3
__ __ __ __ __ __ __ __ __ __ __ __ __ __ __
 72
    65
 73
     2
 40
0.75
 49
0.5
 49
-0.25
  0
LTYPE
  2
HIDDEN
 70
    64
  3
_ _ _ _ _ _ _ _ _ _ _ _ _ _ _ _ _ _ _ _ _ _ _
 72
    65
 73
     2
 40
0.375
 49
0.25
 49
-0.125
  0
LTYPE
  2
DOT
 70
    64
  3
...............................................
 72
    65
 73
     2
 40
0.25
 49
0.0
 49
-0.25
  0
LTYPE
  2
DASHDOT
 70
    64
  3
__ . __ . __ . __ . __ . __ . __ . __ . __ . __
 72
    65
 73
     4
 40
1.0
 49
0.5
 49
-0.25
 49
0.0
 49
-0.25
  0
LTYPE
  2
DIVIDE
 70
    64
  3
__ . . __ . . __ . . __ . . __ . . __ . . __
 72
    65
 73
     6
 40
1.25
 49
0.5
 49
-0.25
 49
0.0
 49
-0.25
 49
0.0
 49
-0.25
  0
LTYPE
  2
CENTER
 70
    64
  3
____ _ ____ _ ____ _ ____ _ ____ _ ____ _ ____ 
 72
    65
 73
     4
 40
2.0
 49
1.25
 49
-0.25
 49
0.25
 49
-0.25
  0
LTYPE
  2
PHANTOM
 70
    64
  3
______  __  __  ______  __  __  ______  __  __ 
 72
    65
 73
     6
 40
2.5
 49
1.25
 49
-0.25
 49
0.25
 49
-0.25
 49
0.25
 49
-0.25
  0
LTYPE
  2
BORDER
 70
    64
  3
__ __ . __ __ . __ __ . __ __ . __ __ . __ __ .
 72
    65
 73
     6
 40
1.75
 49
0.5
 49
-0.25
 49
0.5
 49
-0.25
 49
0.0
 49
-0.25
  0
ENDTAB
  0
TABLE
  2
LAYER
 70
    16
  0
LAYER
  2
CSLAYER1
 70
    64
 62
     7
  6
CONTINUOUS
  0
LAYER
  2
CSLAYER2
 70
    64
 62
     7
  6
CONTINUOUS
  0
LAYER
  2
CSLAYER3
 70
    64
 62
     7
  6
CONTINUOUS
  0
LAYER
  2
CSLAYER4
 70
    64
 62
     7
  6
CONTINUOUS
  0
LAYER
  2
CSLAYER5
 70
    64
 62
     7
  6
CONTINUOUS
  0
LAYER
  2
CSLAYER6
 70
    64
 62
     7
  6
CONTINUOUS
  0
LAYER
  2
CSLAYER7
 70
    64
 62
     7
  6
CONTINUOUS
  0
LAYER
  2
CSLAYER8
 70
    64
 62
     7
  6
CONTINUOUS
  0
LAYER
  2
CSLAYER9
 70
    64
 62
     7
  6
CONTINUOUS
  0
LAYER
  2
CSLAYER10
 70
    64
 62
     7
  6
CONTINUOUS
  0
LAYER
  2
CSLAYER11
 70
    64
 62
     7
  6
CONTINUOUS
  0
LAYER
  2
CSLAYER12
 70
    64
 62
     7
  6
CONTINUOUS
  0
LAYER
  2
CSLAYER13
 70
    64
 62
     7
  6
CONTINUOUS
  0
LAYER
  2
CSLAYER14
 70
    64
 62
     7
  6
CONTINUOUS
  0
LAYER
  2
CSLAYER15
 70
    64
 62
     7
  6
CONTINUOUS
  0
LAYER
  2
CSLAYER16
 70
    64
 62
     7
  6
CONTINUOUS
  0
ENDTAB
  0
TABLE
  2
STYLE
 70
     1
  0
STYLE
  2
SX_FONT
 70
     0
 40
1.0
 41
1.0
 50
0.0
 71
     0
 42
1.0
  3
monotxt
  4
bigfont
  0
ENDTAB
  0
TABLE
  2
VIEW
 70
     0
  0
ENDTAB
  0
ENDSEC
  0
SECTION
  2
BLOCKS
  0
BLOCK
  8
CSLAYER1
  2
*D0000
 70
    65
 10
0.0
 20
0.0
 30
0.0
  0
LINE
  8
CSLAYER1
  6
CONTINUOUS
 62
     7
 10
70.554416
 20
180.684082
 11
70.554416
 21
186.684082
  0
LINE
  8
CSLAYER1
  6
CONTINUOUS
 62
     7
 10
105.554416
 20
180.684082
 11
105.554416
 21
186.684082
  0
LINE
  8
CSLAYER1
  6
CONTINUOUS
 62
     7
 10
70.554416
 20
185.684082
 11
105.554416
 21
185.684082
  0
LINE
  8
CSLAYER1
  6
CONTINUOUS
 62
     7
 10
70.554416
 20
185.684082
 11
74.418119
 21
186.719358
  0
LINE
  8
CSLAYER1
  6
CONTINUOUS
 62
     7
 10
70.554416
 20
185.684082
 11
74.418119
 21
184.648806
  0
LINE
  8
CSLAYER1
  6
CONTINUOUS
 62
     7
 10
105.554416
 20
185.684082
 11
101.690713
 21
186.719358
  0
LINE
  8
CSLAYER1
  6
CONTINUOUS
 62
     7
 10
105.554416
 20
185.684082
 11
101.690713
 21
184.648806
  0
TEXT
  8
CSLAYER1
 62
     7
 10
85.054413
 20
186.684082
 40
4.000000
 41
0.900000
  1
35
 50
0.000000
 51
0.000000
  7
SX_FONT
 72
     5
 11
91.054413
 21
186.684082
  0
ENDBLK
  8
0
  0
BLOCK
  8
CSLAYER1
  2
*D0001
 70
    65
 10
0.0
 20
0.0
 30
0.0
  0
LINE
  8
CSLAYER1
  6
CONTINUOUS
 62
     7
 10
110.850952
 20
163.494619
 11
116.850952
 21
163.494619
  0
LINE
  8
CSLAYER1
  6
CONTINUOUS
 62
     7
 10
110.850952
 20
175.494619
 11
116.850952
 21
175.494619
  0
LINE
  8
CSLAYER1
  6
CONTINUOUS
 62
     7
 10
115.850952
 20
163.494619
 11
115.850952
 21
175.494619
  0
LINE
  8
CSLAYER1
  6
CONTINUOUS
 62
     7
 10
115.850952
 20
157.494619
 11
115.850952
 21
163.494619
  0
LINE
  8
CSLAYER1
  6
CONTINUOUS
 62
     7
 10
115.850952
 20
163.494619
 11
114.815676
 21
159.630916
  0
LINE
  8
CSLAYER1
  6
CONTINUOUS
 62
     7
 10
115.850952
 20
163.494619
 11
116.886228
 21
159.630916
  0
LINE
  8
CSLAYER1
  6
CONTINUOUS
 62
     7
 10
115.850952
 20
175.494619
 11
115.850952
 21
181.494619
  0
LINE
  8
CSLAYER1
  6
CONTINUOUS
 62
     7
 10
115.850952
 20
175.494619
 11
114.815676
 21
179.358322
  0
LINE
  8
CSLAYER1
  6
CONTINUOUS
 62
     7
 10
115.850952
 20
175.494619
 11
116.886228
 21
179.358322
  0
TEXT
  8
CSLAYER1
 62
     7
 10
120.850952
 20
166.494614
 40
4.000000
 41
0.900000
  1
12
 50
90.000000
 51
0.000000
  7
SX_FONT
 72
     5
 11
120.850952
 21
172.494614
  0
ENDBLK
  8
0
  0
ENDSEC
  0
SECTION
  2
ENTITIES
  0
ARC
  8
CSLAYER2
  6
CONTINUOUS
 62
     7
 10
88.054416
 20
136.994619
 40
38.500000
 50
67.380135
 51
112.619865
  0
LINE
  8
CSLAYER2
  6
CONTINUOUS
 62
     7
 10
70.554416
 20
163.494619
 11
70.554416
 21
168.494619
  0
ARC
  8
CSLAYER2
  6
CONTINUOUS
 62
     7
 10
74.929416
 20
168.494619
 40
4.375000
 50
112.619865
 51
180.000000
  0
ARC
  8
CSLAYER2
  6
CONTINUOUS
 62
     7
 10
101.179416
 20
168.494619
 40
4.375000
 50
0.000000
 51
67.380135
  0
LINE
  8
CSLAYER2
  6
CONTINUOUS
 62
     7
 10
105.554416
 20
168.494619
 11
105.554416
 21
163.494619
  0
TEXT
  8
CSLAYER1
 62
     7
 10
70.762611
 20
100.713341
 40
12.000000
 41
0.695652
  1
FHR-5038
 50
0.000000
 51
0.000000
  7
SX_FONT
 72
     5
 11
134.762611
 21
100.713341
  0
LINE
  8
CSLAYER1
  6
CONTINUOUS
 62
     7
 10
70.554416
 20
163.494619
 11
105.554416
 21
163.494619
  0
DIMENSION
  8
CSLAYER1
 62
     7
  2
*D0000
 10
105.554416
 20
185.684082
 11
88.054413
 21
186.684082
 13
70.554416
 23
179.684082
 14
105.554416
 24
179.684082
 70
1
  0
DIMENSION
  8
CSLAYER1
 62
     7
  2
*D0001
 10
115.850952
 20
175.494619
 11
116.850952
 21
169.494614
 13
109.850952
 23
163.494619
 14
109.850952
 24
175.494619
 50
90.000000
 70
1
  0
TEXT
  8
CSLAYER1
 62
     7
 10
69.924995
 20
86.243085
 40
5.547002
 41
0.589931
  1
カタログ Vol. 1  P87
 50
0.000000
 51
0.000000
  7
SX_FONT
 72
     5
 11
121.191780
 21
86.243085
  0
TEXT
  8
CSLAYER1
 62
     7
 10
146.101563
 20
101.250000
 40
12.000000
 41
0.714286
  1
35x12
 50
0.000000
 51
0.000000
  7
SX_FONT
 72
     5
 11
186.101563
 21
101.250000
  0
TEXT
  8
CSLAYER1
 62
     7
 10
69.924498
 20
77.009825
 40
4.960742
 41
0.729057
  1
ホ%%dケットカタロク゛ Vol. 1 P61
 50
0.000000
 51
0.000000
  7
SX_FONT
 72
     5
 11
144.668855
 21
77.009825
  0
ENDSEC
  0
EOF
