  0
SECTION
  2
HEADER
  9
$ACADVER
  1
AC1006
  9
$INSBASE
 10
75.085693
 20
180.850098
 30
0.0
  9
$EXTMIN
 10
75.085693
 20
180.850098
  9
$EXTMAX
 10
285.085693
 20
477.850098
  9
$LIMMIN
 10
75.085693
 20
180.850098
  9
$LIMMAX
 10
285.085693
 20
477.850098
  9
$VIEWCTR
 10
180.085693
 20
329.350098
  9
$VIEWSIZE
 40
297.000000
  9
$SNAPMODE
 70
     0
  9
$SNAPUNIT
 10
1.0
 20
1.0
  9
$SNAPBASE
 10
0.0
 20
0.0
  9
$SNAPANG
 50
0.0
  9
$SNAPSTYLE
 70
     0
  9
$SNAPISOPAIR
 70
     0
  9
$GRIDMODE
 70
     0
  9
$GRIDUNIT
 10
0.0
 20
0.0
  9
$ORTHOMODE
 70
     0
  9
$REGENMODE
 70
     1
  9
$FILLMODE
 70
     1
  9
$QTEXTMODE
 70
     0
  9
$DRAGMODE
 70
     2
  9
$LTSCALE
 40
15.000000
  9
$OSMODE
 70
     0
  9
$ATTMODE
 70
     1
  9
$TEXTSIZE
 40
0.2
  9
$TRACEWID
 40
0.05
  9
$TEXTSTYLE
  7
STANDARD
  9
$CLAYER
  8
CSLAYER3
  9
$CELTYPE
  6
BYLAYER
  9
$CECOLOR
 62
   256
  9
$DIMSCALE
 40
1.0
  9
$DIMASZ
 40
0.18
  9
$DIMEXO
 40
0.0625
  9
$DIMDLI
 40
0.38
  9
$DIMRND
 40
0.0
  9
$DIMDLE
 40
0.0
  9
$DIMEXE
 40
0.18
  9
$DIMTP
 40
0.0
  9
$DIMTM
 40
0.0
  9
$DIMTXT
 40
0.18
  9
$DIMCEN
 40
0.09
  9
$DIMTSZ
 40
0.0
  9
$DIMTOL
 70
     0
  9
$DIMLIM
 70
     0
  9
$DIMTIH
 70
     1
  9
$DIMTOH
 70
     1
  9
$DIMSE1
 70
     0
  9
$DIMSE2
 70
     0
  9
$DIMTAD
 70
     0
  9
$DIMZIN
 70
     0
  9
$DIMBLK
  1

  9
$LUNITS
 70
     2
  9
$LUPREC
 70
     4
  9
$AXISMODE
 70
     0
  9
$AXISUNIT
 10
0.0
 20
0.0
  9
$SKETCHINC
 40
0.1
  9
$FILLETRAD
 40
0.0
  9
$AUNITS
 70
     0
  9
$AUPREC
 70
     0
  9
$MENU
  1
ACAD
  9
$ELEVATION
 40
0.0
  9
$THICKNESS
 40
0.0
  9
$VIEWDIR
 10
0.0
 20
0.0
 30
1.0
  9
$LIMCHECK
 70
     0
  9
$BLIPMODE
 70
     1
  9
$CHAMFERA
 40
0.0
  9
$CHAMFERB
 40
0.0
  9
$FASTZOOM
 70
     1
  9
$SKPOLY
 70
     0
  9
$TDCREATE
 40
0.000000
  9
$TDUPDATE
 40
0.000000
  9
$TDINDWG
 40
0.0
  9
$TDUSRTIMER
 40
0.0
  9
$USRTIMER
 70
     1
  9
$ANGBASE
 50
0.0
  9
$ANGDIR
 70
     0
  9
$PDMODE
 70
     0
  9
$PDSIZE
 40
0.0
  9
$PLINEWID
 40
0.0
  9
$COORDS
 70
     0
  9
$USERI1
 70
     0
  9
$USERI2
 70
     0
  9
$USERI3
 70
     0
  9
$USERI4
 70
     0
  9
$USERI5
 70
     0
  9
$USERR1
 40
0.0
  9
$USERR2
 40
0.0
  9
$USERR3
 40
0.0
  9
$USERR4
 40
0.0
  9
$USERR5
 40
0.0
  0
ENDSEC
  0
SECTION
  2
TABLES
  0
TABLE
  2
LTYPE
 70
     9
  0
LTYPE
  2
CONTINUOUS
 70
    64
  3
Solid line
 72
    65
 73
     0
 40
0.0
  0
LTYPE
  2
DASHED
 70
    64
  3
__ __ __ __ __ __ __ __ __ __ __ __ __ __ __
 72
    65
 73
     2
 40
0.75
 49
0.5
 49
-0.25
  0
LTYPE
  2
HIDDEN
 70
    64
  3
_ _ _ _ _ _ _ _ _ _ _ _ _ _ _ _ _ _ _ _ _ _ _
 72
    65
 73
     2
 40
0.375
 49
0.25
 49
-0.125
  0
LTYPE
  2
DOT
 70
    64
  3
...............................................
 72
    65
 73
     2
 40
0.25
 49
0.0
 49
-0.25
  0
LTYPE
  2
DASHDOT
 70
    64
  3
__ . __ . __ . __ . __ . __ . __ . __ . __ . __
 72
    65
 73
     4
 40
1.0
 49
0.5
 49
-0.25
 49
0.0
 49
-0.25
  0
LTYPE
  2
DIVIDE
 70
    64
  3
__ . . __ . . __ . . __ . . __ . . __ . . __
 72
    65
 73
     6
 40
1.25
 49
0.5
 49
-0.25
 49
0.0
 49
-0.25
 49
0.0
 49
-0.25
  0
LTYPE
  2
CENTER
 70
    64
  3
____ _ ____ _ ____ _ ____ _ ____ _ ____ _ ____ 
 72
    65
 73
     4
 40
2.0
 49
1.25
 49
-0.25
 49
0.25
 49
-0.25
  0
LTYPE
  2
PHANTOM
 70
    64
  3
______  __  __  ______  __  __  ______  __  __ 
 72
    65
 73
     6
 40
2.5
 49
1.25
 49
-0.25
 49
0.25
 49
-0.25
 49
0.25
 49
-0.25
  0
LTYPE
  2
BORDER
 70
    64
  3
__ __ . __ __ . __ __ . __ __ . __ __ . __ __ .
 72
    65
 73
     6
 40
1.75
 49
0.5
 49
-0.25
 49
0.5
 49
-0.25
 49
0.0
 49
-0.25
  0
ENDTAB
  0
TABLE
  2
LAYER
 70
    16
  0
LAYER
  2
CSLAYER1
 70
    64
 62
     7
  6
CONTINUOUS
  0
LAYER
  2
CSLAYER2
 70
    64
 62
     7
  6
CONTINUOUS
  0
LAYER
  2
CSLAYER3
 70
    64
 62
     7
  6
CONTINUOUS
  0
LAYER
  2
CSLAYER4
 70
    64
 62
     7
  6
CONTINUOUS
  0
LAYER
  2
CSLAYER5
 70
    64
 62
     7
  6
CONTINUOUS
  0
LAYER
  2
CSLAYER6
 70
    64
 62
     7
  6
CONTINUOUS
  0
LAYER
  2
CSLAYER7
 70
    64
 62
     7
  6
CONTINUOUS
  0
LAYER
  2
CSLAYER8
 70
    64
 62
     7
  6
CONTINUOUS
  0
LAYER
  2
CSLAYER9
 70
    64
 62
     7
  6
CONTINUOUS
  0
LAYER
  2
CSLAYER10
 70
    64
 62
     7
  6
CONTINUOUS
  0
LAYER
  2
CSLAYER11
 70
    64
 62
     7
  6
CONTINUOUS
  0
LAYER
  2
CSLAYER12
 70
    64
 62
     7
  6
CONTINUOUS
  0
LAYER
  2
CSLAYER13
 70
    64
 62
     7
  6
CONTINUOUS
  0
LAYER
  2
CSLAYER14
 70
    64
 62
     7
  6
CONTINUOUS
  0
LAYER
  2
CSLAYER15
 70
    64
 62
     7
  6
CONTINUOUS
  0
LAYER
  2
CSLAYER16
 70
    64
 62
     7
  6
CONTINUOUS
  0
ENDTAB
  0
TABLE
  2
STYLE
 70
     1
  0
STYLE
  2
SX_FONT
 70
     0
 40
1.0
 41
1.0
 50
0.0
 71
     0
 42
1.0
  3
monotxt
  4
bigfont
  0
ENDTAB
  0
TABLE
  2
VIEW
 70
     0
  0
ENDTAB
  0
ENDSEC
  0
SECTION
  2
BLOCKS
  0
BLOCK
  8
CSLAYER1
  2
*D0000
 70
    65
 10
0.0
 20
0.0
 30
0.0
  0
LINE
  8
CSLAYER1
  6
CONTINUOUS
 62
     7
 10
70.476291
 20
177.617188
 11
70.476291
 21
183.617188
  0
LINE
  8
CSLAYER1
  6
CONTINUOUS
 62
     7
 10
100.476291
 20
177.617188
 11
100.476291
 21
183.617188
  0
LINE
  8
CSLAYER1
  6
CONTINUOUS
 62
     7
 10
70.476291
 20
182.617188
 11
100.476291
 21
182.617188
  0
LINE
  8
CSLAYER1
  6
CONTINUOUS
 62
     7
 10
70.476291
 20
182.617188
 11
74.339994
 21
183.652464
  0
LINE
  8
CSLAYER1
  6
CONTINUOUS
 62
     7
 10
70.476291
 20
182.617188
 11
74.339994
 21
181.581911
  0
LINE
  8
CSLAYER1
  6
CONTINUOUS
 62
     7
 10
100.476291
 20
182.617188
 11
96.612588
 21
183.652464
  0
LINE
  8
CSLAYER1
  6
CONTINUOUS
 62
     7
 10
100.476291
 20
182.617188
 11
96.612588
 21
181.581911
  0
TEXT
  8
CSLAYER1
 62
     7
 10
82.476288
 20
183.617188
 40
4.000000
 41
0.900000
  1
30
 50
0.000000
 51
0.000000
  7
SX_FONT
 72
     5
 11
88.476288
 21
183.617188
  0
ENDBLK
  8
0
  0
BLOCK
  8
CSLAYER1
  2
*D0001
 70
    65
 10
0.0
 20
0.0
 30
0.0
  0
LINE
  8
CSLAYER1
  6
CONTINUOUS
 62
     7
 10
105.620850
 20
160.588369
 11
111.620850
 21
160.588369
  0
LINE
  8
CSLAYER1
  6
CONTINUOUS
 62
     7
 10
105.620850
 20
172.588369
 11
111.620850
 21
172.588369
  0
LINE
  8
CSLAYER1
  6
CONTINUOUS
 62
     7
 10
110.620850
 20
160.588369
 11
110.620850
 21
172.588369
  0
LINE
  8
CSLAYER1
  6
CONTINUOUS
 62
     7
 10
110.620850
 20
154.588369
 11
110.620850
 21
160.588369
  0
LINE
  8
CSLAYER1
  6
CONTINUOUS
 62
     7
 10
110.620850
 20
160.588369
 11
109.585573
 21
156.724666
  0
LINE
  8
CSLAYER1
  6
CONTINUOUS
 62
     7
 10
110.620850
 20
160.588369
 11
111.656126
 21
156.724666
  0
LINE
  8
CSLAYER1
  6
CONTINUOUS
 62
     7
 10
110.620850
 20
172.588369
 11
110.620850
 21
178.588369
  0
LINE
  8
CSLAYER1
  6
CONTINUOUS
 62
     7
 10
110.620850
 20
172.588369
 11
109.585573
 21
176.452072
  0
LINE
  8
CSLAYER1
  6
CONTINUOUS
 62
     7
 10
110.620850
 20
172.588369
 11
111.656126
 21
176.452072
  0
TEXT
  8
CSLAYER1
 62
     7
 10
115.620850
 20
163.588364
 40
4.000000
 41
0.900000
  1
12
 50
90.000000
 51
0.000000
  7
SX_FONT
 72
     5
 11
115.620850
 21
169.588364
  0
ENDBLK
  8
0
  0
ENDSEC
  0
SECTION
  2
ENTITIES
  0
ARC
  8
CSLAYER2
  6
CONTINUOUS
 62
     7
 10
85.476291
 20
139.588369
 40
33.000000
 50
67.380135
 51
112.619865
  0
LINE
  8
CSLAYER2
  6
CONTINUOUS
 62
     7
 10
70.476291
 20
160.588369
 11
70.476291
 21
166.588369
  0
ARC
  8
CSLAYER2
  6
CONTINUOUS
 62
     7
 10
74.226291
 20
166.588369
 40
3.750000
 50
112.619865
 51
180.000000
  0
ARC
  8
CSLAYER2
  6
CONTINUOUS
 62
     7
 10
96.726291
 20
166.588369
 40
3.750000
 50
0.000000
 51
67.380135
  0
LINE
  8
CSLAYER2
  6
CONTINUOUS
 62
     7
 10
100.476291
 20
166.588369
 11
100.476291
 21
160.588369
  0
TEXT
  8
CSLAYER1
 62
     7
 10
70.455528
 20
98.344833
 40
12.000000
 41
0.695652
  1
FHR-5037
 50
0.000000
 51
0.000000
  7
SX_FONT
 72
     5
 11
134.455528
 21
98.344833
  0
LINE
  8
CSLAYER1
  6
CONTINUOUS
 62
     7
 10
70.476291
 20
160.588369
 11
100.476291
 21
160.588369
  0
DIMENSION
  8
CSLAYER1
 62
     7
  2
*D0000
 10
100.476291
 20
182.617188
 11
85.476288
 21
183.617188
 13
70.476291
 23
176.617188
 14
100.476291
 24
176.617188
 70
1
  0
DIMENSION
  8
CSLAYER1
 62
     7
  2
*D0001
 10
110.620850
 20
172.588369
 11
111.620850
 21
166.588364
 13
104.620850
 23
160.588369
 14
104.620850
 24
172.588369
 50
90.000000
 70
1
  0
TEXT
  8
CSLAYER1
 62
     7
 10
71.737534
 20
83.564954
 40
5.547002
 41
0.589931
  1
カタログ Vol. 1  P87
 50
0.000000
 51
0.000000
  7
SX_FONT
 72
     5
 11
123.004318
 21
83.564954
  0
TEXT
  8
CSLAYER1
 62
     7
 10
144.829590
 20
98.675812
 40
12.000000
 41
0.714286
  1
30x12
 50
0.000000
 51
0.000000
  7
SX_FONT
 72
     5
 11
184.829590
 21
98.675812
  0
TEXT
  8
CSLAYER1
 62
     7
 10
71.497069
 20
74.050696
 40
4.960742
 41
0.729057
  1
ホ%%dケットカタロク゛ Vol. 1 P61
 50
0.000000
 51
0.000000
  7
SX_FONT
 72
     5
 11
146.241426
 21
74.050696
  0
ENDSEC
  0
EOF
