  0
SECTION
  2
HEADER
  9
$ACADVER
  1
AC1006
  9
$INSBASE
 10
75.885091
 20
184.994792
 30
0.0
  9
$EXTMIN
 10
75.885091
 20
184.994792
  9
$EXTMAX
 10
285.885091
 20
481.994792
  9
$LIMMIN
 10
75.885091
 20
184.994792
  9
$LIMMAX
 10
285.885091
 20
481.994792
  9
$VIEWCTR
 10
180.885091
 20
333.494792
  9
$VIEWSIZE
 40
297.000000
  9
$SNAPMODE
 70
     0
  9
$SNAPUNIT
 10
1.0
 20
1.0
  9
$SNAPBASE
 10
0.0
 20
0.0
  9
$SNAPANG
 50
0.0
  9
$SNAPSTYLE
 70
     0
  9
$SNAPISOPAIR
 70
     0
  9
$GRIDMODE
 70
     0
  9
$GRIDUNIT
 10
0.0
 20
0.0
  9
$ORTHOMODE
 70
     0
  9
$REGENMODE
 70
     1
  9
$FILLMODE
 70
     1
  9
$QTEXTMODE
 70
     0
  9
$DRAGMODE
 70
     2
  9
$LTSCALE
 40
15.000000
  9
$OSMODE
 70
     0
  9
$ATTMODE
 70
     1
  9
$TEXTSIZE
 40
0.2
  9
$TRACEWID
 40
0.05
  9
$TEXTSTYLE
  7
STANDARD
  9
$CLAYER
  8
CSLAYER3
  9
$CELTYPE
  6
BYLAYER
  9
$CECOLOR
 62
   256
  9
$DIMSCALE
 40
1.0
  9
$DIMASZ
 40
0.18
  9
$DIMEXO
 40
0.0625
  9
$DIMDLI
 40
0.38
  9
$DIMRND
 40
0.0
  9
$DIMDLE
 40
0.0
  9
$DIMEXE
 40
0.18
  9
$DIMTP
 40
0.0
  9
$DIMTM
 40
0.0
  9
$DIMTXT
 40
0.18
  9
$DIMCEN
 40
0.09
  9
$DIMTSZ
 40
0.0
  9
$DIMTOL
 70
     0
  9
$DIMLIM
 70
     0
  9
$DIMTIH
 70
     1
  9
$DIMTOH
 70
     1
  9
$DIMSE1
 70
     0
  9
$DIMSE2
 70
     0
  9
$DIMTAD
 70
     0
  9
$DIMZIN
 70
     0
  9
$DIMBLK
  1

  9
$LUNITS
 70
     2
  9
$LUPREC
 70
     4
  9
$AXISMODE
 70
     0
  9
$AXISUNIT
 10
0.0
 20
0.0
  9
$SKETCHINC
 40
0.1
  9
$FILLETRAD
 40
0.0
  9
$AUNITS
 70
     0
  9
$AUPREC
 70
     0
  9
$MENU
  1
ACAD
  9
$ELEVATION
 40
0.0
  9
$THICKNESS
 40
0.0
  9
$VIEWDIR
 10
0.0
 20
0.0
 30
1.0
  9
$LIMCHECK
 70
     0
  9
$BLIPMODE
 70
     1
  9
$CHAMFERA
 40
0.0
  9
$CHAMFERB
 40
0.0
  9
$FASTZOOM
 70
     1
  9
$SKPOLY
 70
     0
  9
$TDCREATE
 40
0.000000
  9
$TDUPDATE
 40
0.000000
  9
$TDINDWG
 40
0.0
  9
$TDUSRTIMER
 40
0.0
  9
$USRTIMER
 70
     1
  9
$ANGBASE
 50
0.0
  9
$ANGDIR
 70
     0
  9
$PDMODE
 70
     0
  9
$PDSIZE
 40
0.0
  9
$PLINEWID
 40
0.0
  9
$COORDS
 70
     0
  9
$USERI1
 70
     0
  9
$USERI2
 70
     0
  9
$USERI3
 70
     0
  9
$USERI4
 70
     0
  9
$USERI5
 70
     0
  9
$USERR1
 40
0.0
  9
$USERR2
 40
0.0
  9
$USERR3
 40
0.0
  9
$USERR4
 40
0.0
  9
$USERR5
 40
0.0
  0
ENDSEC
  0
SECTION
  2
TABLES
  0
TABLE
  2
LTYPE
 70
     9
  0
LTYPE
  2
CONTINUOUS
 70
    64
  3
Solid line
 72
    65
 73
     0
 40
0.0
  0
LTYPE
  2
DASHED
 70
    64
  3
__ __ __ __ __ __ __ __ __ __ __ __ __ __ __
 72
    65
 73
     2
 40
0.75
 49
0.5
 49
-0.25
  0
LTYPE
  2
HIDDEN
 70
    64
  3
_ _ _ _ _ _ _ _ _ _ _ _ _ _ _ _ _ _ _ _ _ _ _
 72
    65
 73
     2
 40
0.375
 49
0.25
 49
-0.125
  0
LTYPE
  2
DOT
 70
    64
  3
...............................................
 72
    65
 73
     2
 40
0.25
 49
0.0
 49
-0.25
  0
LTYPE
  2
DASHDOT
 70
    64
  3
__ . __ . __ . __ . __ . __ . __ . __ . __ . __
 72
    65
 73
     4
 40
1.0
 49
0.5
 49
-0.25
 49
0.0
 49
-0.25
  0
LTYPE
  2
DIVIDE
 70
    64
  3
__ . . __ . . __ . . __ . . __ . . __ . . __
 72
    65
 73
     6
 40
1.25
 49
0.5
 49
-0.25
 49
0.0
 49
-0.25
 49
0.0
 49
-0.25
  0
LTYPE
  2
CENTER
 70
    64
  3
____ _ ____ _ ____ _ ____ _ ____ _ ____ _ ____ 
 72
    65
 73
     4
 40
2.0
 49
1.25
 49
-0.25
 49
0.25
 49
-0.25
  0
LTYPE
  2
PHANTOM
 70
    64
  3
______  __  __  ______  __  __  ______  __  __ 
 72
    65
 73
     6
 40
2.5
 49
1.25
 49
-0.25
 49
0.25
 49
-0.25
 49
0.25
 49
-0.25
  0
LTYPE
  2
BORDER
 70
    64
  3
__ __ . __ __ . __ __ . __ __ . __ __ . __ __ .
 72
    65
 73
     6
 40
1.75
 49
0.5
 49
-0.25
 49
0.5
 49
-0.25
 49
0.0
 49
-0.25
  0
ENDTAB
  0
TABLE
  2
LAYER
 70
    16
  0
LAYER
  2
CSLAYER1
 70
    64
 62
     7
  6
CONTINUOUS
  0
LAYER
  2
CSLAYER2
 70
    64
 62
     7
  6
CONTINUOUS
  0
LAYER
  2
CSLAYER3
 70
    64
 62
     7
  6
CONTINUOUS
  0
LAYER
  2
CSLAYER4
 70
    64
 62
     7
  6
CONTINUOUS
  0
LAYER
  2
CSLAYER5
 70
    64
 62
     7
  6
CONTINUOUS
  0
LAYER
  2
CSLAYER6
 70
    64
 62
     7
  6
CONTINUOUS
  0
LAYER
  2
CSLAYER7
 70
    64
 62
     7
  6
CONTINUOUS
  0
LAYER
  2
CSLAYER8
 70
    64
 62
     7
  6
CONTINUOUS
  0
LAYER
  2
CSLAYER9
 70
    64
 62
     7
  6
CONTINUOUS
  0
LAYER
  2
CSLAYER10
 70
    64
 62
     7
  6
CONTINUOUS
  0
LAYER
  2
CSLAYER11
 70
    64
 62
     7
  6
CONTINUOUS
  0
LAYER
  2
CSLAYER12
 70
    64
 62
     7
  6
CONTINUOUS
  0
LAYER
  2
CSLAYER13
 70
    64
 62
     7
  6
CONTINUOUS
  0
LAYER
  2
CSLAYER14
 70
    64
 62
     7
  6
CONTINUOUS
  0
LAYER
  2
CSLAYER15
 70
    64
 62
     7
  6
CONTINUOUS
  0
LAYER
  2
CSLAYER16
 70
    64
 62
     7
  6
CONTINUOUS
  0
ENDTAB
  0
TABLE
  2
STYLE
 70
     1
  0
STYLE
  2
SX_FONT
 70
     0
 40
1.0
 41
1.0
 50
0.0
 71
     0
 42
1.0
  3
monotxt
  4
bigfont
  0
ENDTAB
  0
TABLE
  2
VIEW
 70
     0
  0
ENDTAB
  0
ENDSEC
  0
SECTION
  2
BLOCKS
  0
BLOCK
  8
CSLAYER1
  2
*D0000
 70
    65
 10
0.0
 20
0.0
 30
0.0
  0
LINE
  8
CSLAYER1
  6
CONTINUOUS
 62
     7
 10
57.880270
 20
162.979430
 11
57.880270
 21
168.979430
  0
LINE
  8
CSLAYER1
  6
CONTINUOUS
 62
     7
 10
87.880270
 20
162.979430
 11
87.880270
 21
168.979430
  0
LINE
  8
CSLAYER1
  6
CONTINUOUS
 62
     7
 10
57.880270
 20
167.979430
 11
87.880270
 21
167.979430
  0
LINE
  8
CSLAYER1
  6
CONTINUOUS
 62
     7
 10
57.880270
 20
167.979430
 11
61.743974
 21
169.014707
  0
LINE
  8
CSLAYER1
  6
CONTINUOUS
 62
     7
 10
57.880270
 20
167.979430
 11
61.743974
 21
166.944154
  0
LINE
  8
CSLAYER1
  6
CONTINUOUS
 62
     7
 10
87.880270
 20
167.979430
 11
84.016567
 21
169.014707
  0
LINE
  8
CSLAYER1
  6
CONTINUOUS
 62
     7
 10
87.880270
 20
167.979430
 11
84.016567
 21
166.944154
  0
TEXT
  8
CSLAYER1
 62
     7
 10
69.880272
 20
168.979431
 40
4.000000
 41
0.900000
  1
30
 50
0.000000
 51
0.000000
  7
SX_FONT
 72
     5
 11
75.880272
 21
168.979431
  0
ENDBLK
  8
0
  0
BLOCK
  8
CSLAYER1
  2
*D0001
 70
    65
 10
0.0
 20
0.0
 30
0.0
  0
LINE
  8
CSLAYER1
  6
CONTINUOUS
 62
     7
 10
93.500387
 20
143.093363
 11
99.500387
 21
143.093363
  0
LINE
  8
CSLAYER1
  6
CONTINUOUS
 62
     7
 10
93.500387
 20
158.093363
 11
99.500387
 21
158.093363
  0
LINE
  8
CSLAYER1
  6
CONTINUOUS
 62
     7
 10
98.500387
 20
143.093363
 11
98.500387
 21
158.093363
  0
LINE
  8
CSLAYER1
  6
CONTINUOUS
 62
     7
 10
98.500387
 20
143.093363
 11
97.465111
 21
146.957066
  0
LINE
  8
CSLAYER1
  6
CONTINUOUS
 62
     7
 10
98.500387
 20
143.093363
 11
99.535664
 21
146.957066
  0
LINE
  8
CSLAYER1
  6
CONTINUOUS
 62
     7
 10
98.500387
 20
158.093363
 11
97.465111
 21
154.229659
  0
LINE
  8
CSLAYER1
  6
CONTINUOUS
 62
     7
 10
98.500387
 20
158.093363
 11
99.535664
 21
154.229659
  0
TEXT
  8
CSLAYER1
 62
     7
 10
104.014717
 20
147.433868
 40
4.000000
 41
0.900000
  1
15
 50
90.000000
 51
0.000000
  7
SX_FONT
 72
     5
 11
104.014717
 21
153.433868
  0
ENDBLK
  8
0
  0
ENDSEC
  0
SECTION
  2
ENTITIES
  0
ARC
  8
CSLAYER1
  6
CONTINUOUS
 62
     7
 10
72.880270
 20
143.093363
 40
15.000000
 50
0.000000
 51
180.000000
  0
LINE
  8
CSLAYER1
  6
CONTINUOUS
 62
     7
 10
57.880270
 20
143.093363
 11
87.880270
 21
143.093363
  0
DIMENSION
  8
CSLAYER1
 62
     7
  2
*D0000
 10
87.880270
 20
167.979430
 11
72.880272
 21
168.979431
 13
57.880270
 23
161.979430
 14
87.880270
 24
161.979430
 70
1
  0
DIMENSION
  8
CSLAYER1
 62
     7
  2
*D0001
 10
98.500387
 20
158.093363
 11
104.014717
 21
150.433868
 13
92.500387
 23
143.093363
 14
92.500387
 24
158.093363
 50
90.000000
 70
1
  0
TEXT
  8
CSLAYER1
 62
     7
 10
58.133965
 20
80.482979
 40
12.000000
 41
0.695652
  1
FHR-5015
 50
0.000000
 51
0.000000
  7
SX_FONT
 72
     5
 11
122.133965
 21
80.482979
  0
TEXT
  8
CSLAYER1
 62
     7
 10
58.999039
 20
64.431066
 40
5.547002
 41
0.589931
  1
カタログ Vol. 1  P84
 50
0.000000
 51
0.000000
  7
SX_FONT
 72
     5
 11
110.265823
 21
64.431066
  0
TEXT
  8
CSLAYER1
 62
     7
 10
132.286514
 20
80.374611
 40
12.000000
 41
0.714286
  1
30x15
 50
0.000000
 51
0.000000
  7
SX_FONT
 72
     5
 11
172.286514
 21
80.374611
  0
TEXT
  8
CSLAYER1
 62
     7
 10
58.561934
 20
55.149161
 40
4.960742
 41
0.729057
  1
ホ%%dケットカタロク゛ Vol. 1 P58
 50
0.000000
 51
0.000000
  7
SX_FONT
 72
     5
 11
133.306291
 21
55.149161
  0
ENDSEC
  0
EOF
