  0
SECTION
  2
HEADER
  9
$ACADVER
  1
AC1006
  9
$INSBASE
 10
84.720540
 20
169.347005
 30
0.0
  9
$EXTMIN
 10
84.720540
 20
169.347005
  9
$EXTMAX
 10
294.720540
 20
466.347005
  9
$LIMMIN
 10
84.720540
 20
169.347005
  9
$LIMMAX
 10
294.720540
 20
466.347005
  9
$VIEWCTR
 10
189.720540
 20
317.847005
  9
$VIEWSIZE
 40
297.000000
  9
$SNAPMODE
 70
     0
  9
$SNAPUNIT
 10
1.0
 20
1.0
  9
$SNAPBASE
 10
0.0
 20
0.0
  9
$SNAPANG
 50
0.0
  9
$SNAPSTYLE
 70
     0
  9
$SNAPISOPAIR
 70
     0
  9
$GRIDMODE
 70
     0
  9
$GRIDUNIT
 10
0.0
 20
0.0
  9
$ORTHOMODE
 70
     0
  9
$REGENMODE
 70
     1
  9
$FILLMODE
 70
     1
  9
$QTEXTMODE
 70
     0
  9
$DRAGMODE
 70
     2
  9
$LTSCALE
 40
15.000000
  9
$OSMODE
 70
     0
  9
$ATTMODE
 70
     1
  9
$TEXTSIZE
 40
0.2
  9
$TRACEWID
 40
0.05
  9
$TEXTSTYLE
  7
STANDARD
  9
$CLAYER
  8
CSLAYER3
  9
$CELTYPE
  6
BYLAYER
  9
$CECOLOR
 62
   256
  9
$DIMSCALE
 40
1.0
  9
$DIMASZ
 40
0.18
  9
$DIMEXO
 40
0.0625
  9
$DIMDLI
 40
0.38
  9
$DIMRND
 40
0.0
  9
$DIMDLE
 40
0.0
  9
$DIMEXE
 40
0.18
  9
$DIMTP
 40
0.0
  9
$DIMTM
 40
0.0
  9
$DIMTXT
 40
0.18
  9
$DIMCEN
 40
0.09
  9
$DIMTSZ
 40
0.0
  9
$DIMTOL
 70
     0
  9
$DIMLIM
 70
     0
  9
$DIMTIH
 70
     1
  9
$DIMTOH
 70
     1
  9
$DIMSE1
 70
     0
  9
$DIMSE2
 70
     0
  9
$DIMTAD
 70
     0
  9
$DIMZIN
 70
     0
  9
$DIMBLK
  1

  9
$LUNITS
 70
     2
  9
$LUPREC
 70
     4
  9
$AXISMODE
 70
     0
  9
$AXISUNIT
 10
0.0
 20
0.0
  9
$SKETCHINC
 40
0.1
  9
$FILLETRAD
 40
0.0
  9
$AUNITS
 70
     0
  9
$AUPREC
 70
     0
  9
$MENU
  1
ACAD
  9
$ELEVATION
 40
0.0
  9
$THICKNESS
 40
0.0
  9
$VIEWDIR
 10
0.0
 20
0.0
 30
1.0
  9
$LIMCHECK
 70
     0
  9
$BLIPMODE
 70
     1
  9
$CHAMFERA
 40
0.0
  9
$CHAMFERB
 40
0.0
  9
$FASTZOOM
 70
     1
  9
$SKPOLY
 70
     0
  9
$TDCREATE
 40
0.000000
  9
$TDUPDATE
 40
0.000000
  9
$TDINDWG
 40
0.0
  9
$TDUSRTIMER
 40
0.0
  9
$USRTIMER
 70
     1
  9
$ANGBASE
 50
0.0
  9
$ANGDIR
 70
     0
  9
$PDMODE
 70
     0
  9
$PDSIZE
 40
0.0
  9
$PLINEWID
 40
0.0
  9
$COORDS
 70
     0
  9
$USERI1
 70
     0
  9
$USERI2
 70
     0
  9
$USERI3
 70
     0
  9
$USERI4
 70
     0
  9
$USERI5
 70
     0
  9
$USERR1
 40
0.0
  9
$USERR2
 40
0.0
  9
$USERR3
 40
0.0
  9
$USERR4
 40
0.0
  9
$USERR5
 40
0.0
  0
ENDSEC
  0
SECTION
  2
TABLES
  0
TABLE
  2
LTYPE
 70
     9
  0
LTYPE
  2
CONTINUOUS
 70
    64
  3
Solid line
 72
    65
 73
     0
 40
0.0
  0
LTYPE
  2
DASHED
 70
    64
  3
__ __ __ __ __ __ __ __ __ __ __ __ __ __ __
 72
    65
 73
     2
 40
0.75
 49
0.5
 49
-0.25
  0
LTYPE
  2
HIDDEN
 70
    64
  3
_ _ _ _ _ _ _ _ _ _ _ _ _ _ _ _ _ _ _ _ _ _ _
 72
    65
 73
     2
 40
0.375
 49
0.25
 49
-0.125
  0
LTYPE
  2
DOT
 70
    64
  3
...............................................
 72
    65
 73
     2
 40
0.25
 49
0.0
 49
-0.25
  0
LTYPE
  2
DASHDOT
 70
    64
  3
__ . __ . __ . __ . __ . __ . __ . __ . __ . __
 72
    65
 73
     4
 40
1.0
 49
0.5
 49
-0.25
 49
0.0
 49
-0.25
  0
LTYPE
  2
DIVIDE
 70
    64
  3
__ . . __ . . __ . . __ . . __ . . __ . . __
 72
    65
 73
     6
 40
1.25
 49
0.5
 49
-0.25
 49
0.0
 49
-0.25
 49
0.0
 49
-0.25
  0
LTYPE
  2
CENTER
 70
    64
  3
____ _ ____ _ ____ _ ____ _ ____ _ ____ _ ____ 
 72
    65
 73
     4
 40
2.0
 49
1.25
 49
-0.25
 49
0.25
 49
-0.25
  0
LTYPE
  2
PHANTOM
 70
    64
  3
______  __  __  ______  __  __  ______  __  __ 
 72
    65
 73
     6
 40
2.5
 49
1.25
 49
-0.25
 49
0.25
 49
-0.25
 49
0.25
 49
-0.25
  0
LTYPE
  2
BORDER
 70
    64
  3
__ __ . __ __ . __ __ . __ __ . __ __ . __ __ .
 72
    65
 73
     6
 40
1.75
 49
0.5
 49
-0.25
 49
0.5
 49
-0.25
 49
0.0
 49
-0.25
  0
ENDTAB
  0
TABLE
  2
LAYER
 70
    16
  0
LAYER
  2
CSLAYER1
 70
    64
 62
     7
  6
CONTINUOUS
  0
LAYER
  2
CSLAYER2
 70
    64
 62
     7
  6
CONTINUOUS
  0
LAYER
  2
CSLAYER3
 70
    64
 62
     7
  6
CONTINUOUS
  0
LAYER
  2
CSLAYER4
 70
    64
 62
     7
  6
CONTINUOUS
  0
LAYER
  2
CSLAYER5
 70
    64
 62
     7
  6
CONTINUOUS
  0
LAYER
  2
CSLAYER6
 70
    64
 62
     7
  6
CONTINUOUS
  0
LAYER
  2
CSLAYER7
 70
    64
 62
     7
  6
CONTINUOUS
  0
LAYER
  2
CSLAYER8
 70
    64
 62
     7
  6
CONTINUOUS
  0
LAYER
  2
CSLAYER9
 70
    64
 62
     7
  6
CONTINUOUS
  0
LAYER
  2
CSLAYER10
 70
    64
 62
     7
  6
CONTINUOUS
  0
LAYER
  2
CSLAYER11
 70
    64
 62
     7
  6
CONTINUOUS
  0
LAYER
  2
CSLAYER12
 70
    64
 62
     7
  6
CONTINUOUS
  0
LAYER
  2
CSLAYER13
 70
    64
 62
     7
  6
CONTINUOUS
  0
LAYER
  2
CSLAYER14
 70
    64
 62
     7
  6
CONTINUOUS
  0
LAYER
  2
CSLAYER15
 70
    64
 62
     7
  6
CONTINUOUS
  0
LAYER
  2
CSLAYER16
 70
    64
 62
     7
  6
CONTINUOUS
  0
ENDTAB
  0
TABLE
  2
STYLE
 70
     1
  0
STYLE
  2
SX_FONT
 70
     0
 40
1.0
 41
1.0
 50
0.0
 71
     0
 42
1.0
  3
monotxt
  4
bigfont
  0
ENDTAB
  0
TABLE
  2
VIEW
 70
     0
  0
ENDTAB
  0
ENDSEC
  0
SECTION
  2
BLOCKS
  0
BLOCK
  8
CSLAYER1
  2
*D0000
 70
    65
 10
0.0
 20
0.0
 30
0.0
  0
LINE
  8
CSLAYER1
  6
CONTINUOUS
 62
     7
 10
82.460938
 20
169.421875
 11
82.460938
 21
174.049281
  0
LINE
  8
CSLAYER1
  6
CONTINUOUS
 62
     7
 10
122.460938
 20
169.421875
 11
122.460938
 21
174.049281
  0
LINE
  8
CSLAYER1
  6
CONTINUOUS
 62
     7
 10
82.460938
 20
173.049281
 11
122.460938
 21
173.049281
  0
LINE
  8
CSLAYER1
  6
CONTINUOUS
 62
     7
 10
82.460938
 20
173.049281
 11
86.324641
 21
174.084557
  0
LINE
  8
CSLAYER1
  6
CONTINUOUS
 62
     7
 10
82.460938
 20
173.049281
 11
86.324641
 21
172.014005
  0
LINE
  8
CSLAYER1
  6
CONTINUOUS
 62
     7
 10
122.460938
 20
173.049281
 11
118.597234
 21
174.084557
  0
LINE
  8
CSLAYER1
  6
CONTINUOUS
 62
     7
 10
122.460938
 20
173.049281
 11
118.597234
 21
172.014005
  0
TEXT
  8
CSLAYER1
 62
     7
 10
99.460938
 20
174.049286
 40
4.000000
 41
0.900000
  1
40
 50
0.000000
 51
0.000000
  7
SX_FONT
 72
     5
 11
105.460938
 21
174.049286
  0
ENDBLK
  8
0
  0
BLOCK
  8
CSLAYER1
  2
*D0001
 70
    65
 10
0.0
 20
0.0
 30
0.0
  0
LINE
  8
CSLAYER1
  6
CONTINUOUS
 62
     7
 10
128.460938
 20
133.421875
 11
133.640873
 21
133.421875
  0
LINE
  8
CSLAYER1
  6
CONTINUOUS
 62
     7
 10
128.460938
 20
163.421875
 11
133.640873
 21
163.421875
  0
LINE
  8
CSLAYER1
  6
CONTINUOUS
 62
     7
 10
132.640873
 20
133.421875
 11
132.640873
 21
163.421875
  0
LINE
  8
CSLAYER1
  6
CONTINUOUS
 62
     7
 10
132.640873
 20
133.421875
 11
131.605597
 21
137.285578
  0
LINE
  8
CSLAYER1
  6
CONTINUOUS
 62
     7
 10
132.640873
 20
133.421875
 11
133.676150
 21
137.285578
  0
LINE
  8
CSLAYER1
  6
CONTINUOUS
 62
     7
 10
132.640873
 20
163.421875
 11
131.605597
 21
159.558172
  0
LINE
  8
CSLAYER1
  6
CONTINUOUS
 62
     7
 10
132.640873
 20
163.421875
 11
133.676150
 21
159.558172
  0
TEXT
  8
CSLAYER1
 62
     7
 10
138.087357
 20
145.267807
 40
4.000000
 41
0.900000
  1
30
 50
90.000000
 51
0.000000
  7
SX_FONT
 72
     5
 11
138.087357
 21
151.267807
  0
ENDBLK
  8
0
  0
ENDSEC
  0
SECTION
  2
ENTITIES
  0
ARC
  8
CSLAYER2
  6
CONTINUOUS
 62
     7
 10
90.960938
 20
146.688374
 40
6.000000
 50
180.000000
 51
242.181861
  0
ARC
  8
CSLAYER2
  6
CONTINUOUS
 62
     7
 10
83.960938
 20
133.421875
 40
9.000000
 50
0.000000
 51
62.181861
  0
ARC
  8
CSLAYER2
  6
CONTINUOUS
 62
     7
 10
80.460938
 20
163.219834
 40
10.000000
 50
281.536959
 51
321.503470
  0
ARC
  8
CSLAYER2
  6
CONTINUOUS
 62
     7
 10
56.981562
 20
181.893851
 40
40.000000
 50
321.503470
 51
332.496719
  0
ARC
  8
CSLAYER2
  6
CONTINUOUS
 62
     7
 10
114.460938
 20
150.921875
 40
7.000000
 50
45.584691
 51
80.383554
  0
ARC
  8
CSLAYER2
  6
CONTINUOUS
 62
     7
 10
119.806594
 20
182.472215
 40
25.000000
 50
231.918897
 51
260.383554
  0
ARC
  8
CSLAYER2
  6
CONTINUOUS
 62
     7
 10
101.960938
 20
158.421875
 40
5.000000
 50
60.971159
 51
90.000000
  0
ARC
  8
CSLAYER2
  6
CONTINUOUS
 62
     7
 10
101.960938
 20
158.421875
 40
5.000000
 50
90.000000
 51
134.427004
  0
LINE
  8
CSLAYER2
  6
CONTINUOUS
 62
     7
 10
82.460938
 20
153.421875
 11
82.460938
 21
148.421875
  0
LINE
  8
CSLAYER2
  6
CONTINUOUS
 62
     7
 10
82.460938
 20
148.421875
 11
84.960938
 21
148.421875
  0
LINE
  8
CSLAYER2
  6
CONTINUOUS
 62
     7
 10
84.960938
 20
148.421875
 11
84.960938
 21
146.688374
  0
LINE
  8
CSLAYER2
  6
CONTINUOUS
 62
     7
 10
92.460938
 20
163.421875
 11
98.460938
 21
163.421875
  0
LINE
  8
CSLAYER2
  6
CONTINUOUS
 62
     7
 10
98.460938
 20
163.421875
 11
98.460938
 21
161.992589
  0
LINE
  8
CSLAYER2
  6
CONTINUOUS
 62
     7
 10
119.359917
 20
155.921875
 11
122.460938
 21
155.921875
  0
LINE
  8
CSLAYER2
  6
CONTINUOUS
 62
     7
 10
122.460938
 20
155.921875
 11
122.460938
 21
151.421875
  0
LINE
  8
CSLAYER2
  6
CONTINUOUS
 62
     7
 10
122.460938
 20
151.421875
 11
98.460938
 21
151.421875
  0
LINE
  8
CSLAYER2
  6
CONTINUOUS
 62
     7
 10
98.460938
 20
151.421875
 11
98.460938
 21
133.421875
  0
LINE
  8
CSLAYER2
  6
CONTINUOUS
 62
     7
 10
98.460938
 20
133.421875
 11
92.960938
 21
133.421875
  0
TEXT
  8
CSLAYER1
 62
     7
 10
82.768089
 20
73.236137
 40
10.000000
 41
0.630000
  1
FM-2180
 50
0.000000
 51
0.000000
  7
SX_FONT
 72
     5
 11
124.768089
 21
73.236137
  0
DIMENSION
  8
CSLAYER1
 62
     7
  2
*D0000
 10
122.460938
 20
173.049281
 11
102.460938
 21
174.049286
 13
82.460938
 23
168.421875
 14
122.460938
 24
168.421875
 70
1
  0
DIMENSION
  8
CSLAYER1
 62
     7
  2
*D0001
 10
132.640873
 20
163.421875
 11
138.087357
 21
148.267807
 13
127.460938
 23
133.421875
 14
127.460938
 24
163.421875
 50
90.000000
 70
1
  0
TEXT
  8
CSLAYER1
 62
     7
 10
139.242188
 20
72.859375
 40
10.000000
 41
0.642857
  1
40x30
 50
0.000000
 51
0.000000
  7
SX_FONT
 72
     5
 11
169.242188
 21
72.859375
  0
TEXT
  8
CSLAYER1
 62
     7
 10
83.678886
 20
62.046051
 40
5.000000
 41
0.612766
  1
カタログ Vol. 1  P68
 50
0.000000
 51
0.000000
  7
SX_FONT
 72
     5
 11
131.678886
 21
62.046051
  0
TEXT
  8
CSLAYER1
 62
     7
 10
83.531744
 20
51.383921
 40
4.960742
 41
0.729057
  1
ホ%%dケットカタロク゛ Vol. 1 P41
 50
0.000000
 51
0.000000
  7
SX_FONT
 72
     5
 11
158.276102
 21
51.383921
  0
ENDSEC
  0
EOF
