  0
SECTION
  2
HEADER
  9
$ACADVER
  1
AC1006
  9
$INSBASE
 10
45.634561
 20
179.102747
 30
0.0
  9
$EXTMIN
 10
45.634561
 20
179.102747
  9
$EXTMAX
 10
255.634561
 20
476.102747
  9
$LIMMIN
 10
45.634561
 20
179.102747
  9
$LIMMAX
 10
255.634561
 20
476.102747
  9
$VIEWCTR
 10
150.634561
 20
327.602747
  9
$VIEWSIZE
 40
297.000000
  9
$SNAPMODE
 70
     0
  9
$SNAPUNIT
 10
1.0
 20
1.0
  9
$SNAPBASE
 10
0.0
 20
0.0
  9
$SNAPANG
 50
0.0
  9
$SNAPSTYLE
 70
     0
  9
$SNAPISOPAIR
 70
     0
  9
$GRIDMODE
 70
     0
  9
$GRIDUNIT
 10
0.0
 20
0.0
  9
$ORTHOMODE
 70
     0
  9
$REGENMODE
 70
     1
  9
$FILLMODE
 70
     1
  9
$QTEXTMODE
 70
     0
  9
$DRAGMODE
 70
     2
  9
$LTSCALE
 40
15.000000
  9
$OSMODE
 70
     0
  9
$ATTMODE
 70
     1
  9
$TEXTSIZE
 40
0.2
  9
$TRACEWID
 40
0.05
  9
$TEXTSTYLE
  7
STANDARD
  9
$CLAYER
  8
CSLAYER3
  9
$CELTYPE
  6
BYLAYER
  9
$CECOLOR
 62
   256
  9
$DIMSCALE
 40
1.0
  9
$DIMASZ
 40
0.18
  9
$DIMEXO
 40
0.0625
  9
$DIMDLI
 40
0.38
  9
$DIMRND
 40
0.0
  9
$DIMDLE
 40
0.0
  9
$DIMEXE
 40
0.18
  9
$DIMTP
 40
0.0
  9
$DIMTM
 40
0.0
  9
$DIMTXT
 40
0.18
  9
$DIMCEN
 40
0.09
  9
$DIMTSZ
 40
0.0
  9
$DIMTOL
 70
     0
  9
$DIMLIM
 70
     0
  9
$DIMTIH
 70
     1
  9
$DIMTOH
 70
     1
  9
$DIMSE1
 70
     0
  9
$DIMSE2
 70
     0
  9
$DIMTAD
 70
     0
  9
$DIMZIN
 70
     0
  9
$DIMBLK
  1

  9
$LUNITS
 70
     2
  9
$LUPREC
 70
     4
  9
$AXISMODE
 70
     0
  9
$AXISUNIT
 10
0.0
 20
0.0
  9
$SKETCHINC
 40
0.1
  9
$FILLETRAD
 40
0.0
  9
$AUNITS
 70
     0
  9
$AUPREC
 70
     0
  9
$MENU
  1
ACAD
  9
$ELEVATION
 40
0.0
  9
$THICKNESS
 40
0.0
  9
$VIEWDIR
 10
0.0
 20
0.0
 30
1.0
  9
$LIMCHECK
 70
     0
  9
$BLIPMODE
 70
     1
  9
$CHAMFERA
 40
0.0
  9
$CHAMFERB
 40
0.0
  9
$FASTZOOM
 70
     1
  9
$SKPOLY
 70
     0
  9
$TDCREATE
 40
0.000000
  9
$TDUPDATE
 40
0.000000
  9
$TDINDWG
 40
0.0
  9
$TDUSRTIMER
 40
0.0
  9
$USRTIMER
 70
     1
  9
$ANGBASE
 50
0.0
  9
$ANGDIR
 70
     0
  9
$PDMODE
 70
     0
  9
$PDSIZE
 40
0.0
  9
$PLINEWID
 40
0.0
  9
$COORDS
 70
     0
  9
$USERI1
 70
     0
  9
$USERI2
 70
     0
  9
$USERI3
 70
     0
  9
$USERI4
 70
     0
  9
$USERI5
 70
     0
  9
$USERR1
 40
0.0
  9
$USERR2
 40
0.0
  9
$USERR3
 40
0.0
  9
$USERR4
 40
0.0
  9
$USERR5
 40
0.0
  0
ENDSEC
  0
SECTION
  2
TABLES
  0
TABLE
  2
LTYPE
 70
     9
  0
LTYPE
  2
CONTINUOUS
 70
    64
  3
Solid line
 72
    65
 73
     0
 40
0.0
  0
LTYPE
  2
DASHED
 70
    64
  3
__ __ __ __ __ __ __ __ __ __ __ __ __ __ __
 72
    65
 73
     2
 40
0.75
 49
0.5
 49
-0.25
  0
LTYPE
  2
HIDDEN
 70
    64
  3
_ _ _ _ _ _ _ _ _ _ _ _ _ _ _ _ _ _ _ _ _ _ _
 72
    65
 73
     2
 40
0.375
 49
0.25
 49
-0.125
  0
LTYPE
  2
DOT
 70
    64
  3
...............................................
 72
    65
 73
     2
 40
0.25
 49
0.0
 49
-0.25
  0
LTYPE
  2
DASHDOT
 70
    64
  3
__ . __ . __ . __ . __ . __ . __ . __ . __ . __
 72
    65
 73
     4
 40
1.0
 49
0.5
 49
-0.25
 49
0.0
 49
-0.25
  0
LTYPE
  2
DIVIDE
 70
    64
  3
__ . . __ . . __ . . __ . . __ . . __ . . __
 72
    65
 73
     6
 40
1.25
 49
0.5
 49
-0.25
 49
0.0
 49
-0.25
 49
0.0
 49
-0.25
  0
LTYPE
  2
CENTER
 70
    64
  3
____ _ ____ _ ____ _ ____ _ ____ _ ____ _ ____ 
 72
    65
 73
     4
 40
2.0
 49
1.25
 49
-0.25
 49
0.25
 49
-0.25
  0
LTYPE
  2
PHANTOM
 70
    64
  3
______  __  __  ______  __  __  ______  __  __ 
 72
    65
 73
     6
 40
2.5
 49
1.25
 49
-0.25
 49
0.25
 49
-0.25
 49
0.25
 49
-0.25
  0
LTYPE
  2
BORDER
 70
    64
  3
__ __ . __ __ . __ __ . __ __ . __ __ . __ __ .
 72
    65
 73
     6
 40
1.75
 49
0.5
 49
-0.25
 49
0.5
 49
-0.25
 49
0.0
 49
-0.25
  0
ENDTAB
  0
TABLE
  2
LAYER
 70
    16
  0
LAYER
  2
CSLAYER1
 70
    64
 62
     7
  6
CONTINUOUS
  0
LAYER
  2
CSLAYER2
 70
    64
 62
     7
  6
CONTINUOUS
  0
LAYER
  2
CSLAYER3
 70
    64
 62
     7
  6
CONTINUOUS
  0
LAYER
  2
CSLAYER4
 70
    64
 62
     7
  6
CONTINUOUS
  0
LAYER
  2
CSLAYER5
 70
    64
 62
     7
  6
CONTINUOUS
  0
LAYER
  2
CSLAYER6
 70
    64
 62
     7
  6
CONTINUOUS
  0
LAYER
  2
CSLAYER7
 70
    64
 62
     7
  6
CONTINUOUS
  0
LAYER
  2
CSLAYER8
 70
    64
 62
     7
  6
CONTINUOUS
  0
LAYER
  2
CSLAYER9
 70
    64
 62
     7
  6
CONTINUOUS
  0
LAYER
  2
CSLAYER10
 70
    64
 62
     7
  6
CONTINUOUS
  0
LAYER
  2
CSLAYER11
 70
    64
 62
     7
  6
CONTINUOUS
  0
LAYER
  2
CSLAYER12
 70
    64
 62
     7
  6
CONTINUOUS
  0
LAYER
  2
CSLAYER13
 70
    64
 62
     7
  6
CONTINUOUS
  0
LAYER
  2
CSLAYER14
 70
    64
 62
     7
  6
CONTINUOUS
  0
LAYER
  2
CSLAYER15
 70
    64
 62
     7
  6
CONTINUOUS
  0
LAYER
  2
CSLAYER16
 70
    64
 62
     7
  6
CONTINUOUS
  0
ENDTAB
  0
TABLE
  2
STYLE
 70
     1
  0
STYLE
  2
SX_FONT
 70
     0
 40
1.0
 41
1.0
 50
0.0
 71
     0
 42
1.0
  3
monotxt
  4
bigfont
  0
ENDTAB
  0
TABLE
  2
VIEW
 70
     0
  0
ENDTAB
  0
ENDSEC
  0
SECTION
  2
BLOCKS
  0
BLOCK
  8
CSLAYER1
  2
*D0000
 70
    65
 10
0.0
 20
0.0
 30
0.0
  0
LINE
  8
CSLAYER1
  6
CONTINUOUS
 62
     7
 10
45.851563
 20
175.109375
 11
45.851563
 21
179.696418
  0
LINE
  8
CSLAYER1
  6
CONTINUOUS
 62
     7
 10
165.851562
 20
175.109375
 11
165.851562
 21
179.696418
  0
LINE
  8
CSLAYER1
  6
CONTINUOUS
 62
     7
 10
45.851563
 20
178.696418
 11
165.851562
 21
178.696418
  0
LINE
  8
CSLAYER1
  6
CONTINUOUS
 62
     7
 10
45.851563
 20
178.696418
 11
49.715266
 21
179.731694
  0
LINE
  8
CSLAYER1
  6
CONTINUOUS
 62
     7
 10
45.851563
 20
178.696418
 11
49.715266
 21
177.661142
  0
LINE
  8
CSLAYER1
  6
CONTINUOUS
 62
     7
 10
165.851562
 20
178.696418
 11
161.987859
 21
179.731694
  0
LINE
  8
CSLAYER1
  6
CONTINUOUS
 62
     7
 10
165.851562
 20
178.696418
 11
161.987859
 21
177.661142
  0
TEXT
  8
CSLAYER1
 62
     7
 10
101.351563
 20
179.696411
 40
4.000000
 41
0.843750
  1
120
 50
0.000000
 51
0.000000
  7
SX_FONT
 72
     5
 11
110.351563
 21
179.696411
  0
ENDBLK
  8
0
  0
BLOCK
  8
CSLAYER1
  2
*D0001
 70
    65
 10
0.0
 20
0.0
 30
0.0
  0
LINE
  8
CSLAYER1
  6
CONTINUOUS
 62
     7
 10
171.851562
 20
119.109375
 11
177.044283
 21
119.109375
  0
LINE
  8
CSLAYER1
  6
CONTINUOUS
 62
     7
 10
171.851562
 20
169.109375
 11
177.044283
 21
169.109375
  0
LINE
  8
CSLAYER1
  6
CONTINUOUS
 62
     7
 10
176.044283
 20
119.109375
 11
176.044283
 21
169.109375
  0
LINE
  8
CSLAYER1
  6
CONTINUOUS
 62
     7
 10
176.044283
 20
119.109375
 11
175.009007
 21
122.973078
  0
LINE
  8
CSLAYER1
  6
CONTINUOUS
 62
     7
 10
176.044283
 20
119.109375
 11
177.079559
 21
122.973078
  0
LINE
  8
CSLAYER1
  6
CONTINUOUS
 62
     7
 10
176.044283
 20
169.109375
 11
175.009007
 21
165.245672
  0
LINE
  8
CSLAYER1
  6
CONTINUOUS
 62
     7
 10
176.044283
 20
169.109375
 11
177.079559
 21
165.245672
  0
TEXT
  8
CSLAYER1
 62
     7
 10
181.281494
 20
141.072586
 40
4.000000
 41
0.900000
  1
50
 50
90.000000
 51
0.000000
  7
SX_FONT
 72
     5
 11
181.281494
 21
147.072586
  0
ENDBLK
  8
0
  0
ENDSEC
  0
SECTION
  2
ENTITIES
  0
ARC
  8
CSLAYER2
  6
CONTINUOUS
 62
     7
 10
148.910386
 20
157.815257
 40
11.294118
 50
0.000000
 51
180.000000
  0
ARC
  8
CSLAYER3
  6
CONTINUOUS
 62
     7
 10
79.578357
 20
134.045714
 40
17.839805
 50
88.061204
 51
173.547469
  0
LINE
  8
CSLAYER2
  6
CONTINUOUS
 62
     7
 10
45.851563
 20
119.109375
 11
165.851562
 21
119.109375
  0
LINE
  8
CSLAYER3
  6
CONTINUOUS
 62
     7
 10
45.851563
 20
128.991728
 11
53.851563
 21
128.991728
  0
LINE
  8
CSLAYER3
  6
CONTINUOUS
 62
     7
 10
45.851563
 20
128.991728
 11
45.851563
 21
119.109375
  0
LINE
  8
CSLAYER3
  6
CONTINUOUS
 62
     7
 10
53.851563
 20
136.050551
 11
53.851563
 21
128.991728
  0
LINE
  8
CSLAYER3
  6
CONTINUOUS
 62
     7
 10
53.851563
 20
136.050551
 11
61.851563
 21
136.050551
  0
ARC
  8
CSLAYER3
  6
CONTINUOUS
 62
     7
 10
120.266566
 20
160.470092
 40
12.000000
 50
275.233155
 51
347.218350
  0
LINE
  8
CSLAYER3
  6
CONTINUOUS
 62
     7
 10
137.616268
 20
157.815257
 11
131.969210
 21
157.815257
  0
LINE
  8
CSLAYER3
  6
CONTINUOUS
 62
     7
 10
131.969210
 20
157.815135
 11
131.969210
 21
157.815257
  0
ARC
  8
CSLAYER3
  6
CONTINUOUS
 62
     7
 10
113.128502
 20
213.980789
 40
65.976327
 50
253.313297
 51
277.168091
  0
ARC
  8
CSLAYER3
  6
CONTINUOUS
 62
     7
 10
83.538588
 20
104.620157
 40
47.374216
 50
77.014014
 51
94.063067
  0
LINE
  8
CSLAYER2
  6
CONTINUOUS
 62
     7
 10
165.851562
 20
119.109375
 11
165.851562
 21
157.815257
  0
LINE
  8
CSLAYER2
  6
CONTINUOUS
 62
     7
 10
165.851562
 20
157.815257
 11
160.204504
 21
157.815257
  0
TEXT
  8
CSLAYER1
 62
     7
 10
45.512085
 20
58.730713
 40
10.000000
 41
0.630000
  1
FM-2175
 50
0.000000
 51
0.000000
  7
SX_FONT
 72
     5
 11
87.512085
 21
58.730713
  0
DIMENSION
  8
CSLAYER1
 62
     7
  2
*D0000
 10
165.851562
 20
178.696418
 11
105.851563
 21
179.696411
 13
45.851563
 23
174.109375
 14
165.851562
 24
174.109375
 70
1
  0
DIMENSION
  8
CSLAYER1
 62
     7
  2
*D0001
 10
176.044283
 20
169.109375
 11
181.281494
 21
144.072586
 13
170.851562
 23
119.109375
 14
170.851562
 24
169.109375
 50
90.000000
 70
1
  0
TEXT
  8
CSLAYER1
 62
     7
 10
101.350754
 20
58.830208
 40
10.000000
 41
0.635294
  1
120x50
 50
0.000000
 51
0.000000
  7
SX_FONT
 72
     5
 11
137.350754
 21
58.830208
  0
TEXT
  8
CSLAYER1
 62
     7
 10
46.450684
 20
46.534054
 40
5.000000
 41
0.612766
  1
カタログ Vol. 1  P65
 50
0.000000
 51
0.000000
  7
SX_FONT
 72
     5
 11
94.450684
 21
46.534054
  0
TEXT
  8
CSLAYER1
 62
     7
 10
46.555884
 20
36.908110
 40
4.960742
 41
0.729057
  1
ホ%%dケットカタロク゛ Vol. 1 P38
 50
0.000000
 51
0.000000
  7
SX_FONT
 72
     5
 11
121.300241
 21
36.908110
  0
ENDSEC
  0
EOF
