  0
SECTION
  2
HEADER
  9
$ACADVER
  1
AC1006
  9
$INSBASE
 10
85.668986
 20
145.229004
 30
0.0
  9
$EXTMIN
 10
85.668986
 20
145.229004
  9
$EXTMAX
 10
295.668986
 20
442.229004
  9
$LIMMIN
 10
85.668986
 20
145.229004
  9
$LIMMAX
 10
295.668986
 20
442.229004
  9
$VIEWCTR
 10
190.668986
 20
293.729004
  9
$VIEWSIZE
 40
297.000000
  9
$SNAPMODE
 70
     0
  9
$SNAPUNIT
 10
1.0
 20
1.0
  9
$SNAPBASE
 10
0.0
 20
0.0
  9
$SNAPANG
 50
0.0
  9
$SNAPSTYLE
 70
     0
  9
$SNAPISOPAIR
 70
     0
  9
$GRIDMODE
 70
     0
  9
$GRIDUNIT
 10
0.0
 20
0.0
  9
$ORTHOMODE
 70
     0
  9
$REGENMODE
 70
     1
  9
$FILLMODE
 70
     1
  9
$QTEXTMODE
 70
     0
  9
$DRAGMODE
 70
     2
  9
$LTSCALE
 40
15.000000
  9
$OSMODE
 70
     0
  9
$ATTMODE
 70
     1
  9
$TEXTSIZE
 40
0.2
  9
$TRACEWID
 40
0.05
  9
$TEXTSTYLE
  7
STANDARD
  9
$CLAYER
  8
CSLAYER3
  9
$CELTYPE
  6
BYLAYER
  9
$CECOLOR
 62
   256
  9
$DIMSCALE
 40
1.0
  9
$DIMASZ
 40
0.18
  9
$DIMEXO
 40
0.0625
  9
$DIMDLI
 40
0.38
  9
$DIMRND
 40
0.0
  9
$DIMDLE
 40
0.0
  9
$DIMEXE
 40
0.18
  9
$DIMTP
 40
0.0
  9
$DIMTM
 40
0.0
  9
$DIMTXT
 40
0.18
  9
$DIMCEN
 40
0.09
  9
$DIMTSZ
 40
0.0
  9
$DIMTOL
 70
     0
  9
$DIMLIM
 70
     0
  9
$DIMTIH
 70
     1
  9
$DIMTOH
 70
     1
  9
$DIMSE1
 70
     0
  9
$DIMSE2
 70
     0
  9
$DIMTAD
 70
     0
  9
$DIMZIN
 70
     0
  9
$DIMBLK
  1

  9
$LUNITS
 70
     2
  9
$LUPREC
 70
     4
  9
$AXISMODE
 70
     0
  9
$AXISUNIT
 10
0.0
 20
0.0
  9
$SKETCHINC
 40
0.1
  9
$FILLETRAD
 40
0.0
  9
$AUNITS
 70
     0
  9
$AUPREC
 70
     0
  9
$MENU
  1
ACAD
  9
$ELEVATION
 40
0.0
  9
$THICKNESS
 40
0.0
  9
$VIEWDIR
 10
0.0
 20
0.0
 30
1.0
  9
$LIMCHECK
 70
     0
  9
$BLIPMODE
 70
     1
  9
$CHAMFERA
 40
0.0
  9
$CHAMFERB
 40
0.0
  9
$FASTZOOM
 70
     1
  9
$SKPOLY
 70
     0
  9
$TDCREATE
 40
0.000000
  9
$TDUPDATE
 40
0.000000
  9
$TDINDWG
 40
0.0
  9
$TDUSRTIMER
 40
0.0
  9
$USRTIMER
 70
     1
  9
$ANGBASE
 50
0.0
  9
$ANGDIR
 70
     0
  9
$PDMODE
 70
     0
  9
$PDSIZE
 40
0.0
  9
$PLINEWID
 40
0.0
  9
$COORDS
 70
     0
  9
$USERI1
 70
     0
  9
$USERI2
 70
     0
  9
$USERI3
 70
     0
  9
$USERI4
 70
     0
  9
$USERI5
 70
     0
  9
$USERR1
 40
0.0
  9
$USERR2
 40
0.0
  9
$USERR3
 40
0.0
  9
$USERR4
 40
0.0
  9
$USERR5
 40
0.0
  0
ENDSEC
  0
SECTION
  2
TABLES
  0
TABLE
  2
LTYPE
 70
     9
  0
LTYPE
  2
CONTINUOUS
 70
    64
  3
Solid line
 72
    65
 73
     0
 40
0.0
  0
LTYPE
  2
DASHED
 70
    64
  3
__ __ __ __ __ __ __ __ __ __ __ __ __ __ __
 72
    65
 73
     2
 40
0.75
 49
0.5
 49
-0.25
  0
LTYPE
  2
HIDDEN
 70
    64
  3
_ _ _ _ _ _ _ _ _ _ _ _ _ _ _ _ _ _ _ _ _ _ _
 72
    65
 73
     2
 40
0.375
 49
0.25
 49
-0.125
  0
LTYPE
  2
DOT
 70
    64
  3
...............................................
 72
    65
 73
     2
 40
0.25
 49
0.0
 49
-0.25
  0
LTYPE
  2
DASHDOT
 70
    64
  3
__ . __ . __ . __ . __ . __ . __ . __ . __ . __
 72
    65
 73
     4
 40
1.0
 49
0.5
 49
-0.25
 49
0.0
 49
-0.25
  0
LTYPE
  2
DIVIDE
 70
    64
  3
__ . . __ . . __ . . __ . . __ . . __ . . __
 72
    65
 73
     6
 40
1.25
 49
0.5
 49
-0.25
 49
0.0
 49
-0.25
 49
0.0
 49
-0.25
  0
LTYPE
  2
CENTER
 70
    64
  3
____ _ ____ _ ____ _ ____ _ ____ _ ____ _ ____ 
 72
    65
 73
     4
 40
2.0
 49
1.25
 49
-0.25
 49
0.25
 49
-0.25
  0
LTYPE
  2
PHANTOM
 70
    64
  3
______  __  __  ______  __  __  ______  __  __ 
 72
    65
 73
     6
 40
2.5
 49
1.25
 49
-0.25
 49
0.25
 49
-0.25
 49
0.25
 49
-0.25
  0
LTYPE
  2
BORDER
 70
    64
  3
__ __ . __ __ . __ __ . __ __ . __ __ . __ __ .
 72
    65
 73
     6
 40
1.75
 49
0.5
 49
-0.25
 49
0.5
 49
-0.25
 49
0.0
 49
-0.25
  0
ENDTAB
  0
TABLE
  2
LAYER
 70
    16
  0
LAYER
  2
CSLAYER1
 70
    64
 62
     7
  6
CONTINUOUS
  0
LAYER
  2
CSLAYER2
 70
    64
 62
     7
  6
CONTINUOUS
  0
LAYER
  2
CSLAYER3
 70
    64
 62
     7
  6
CONTINUOUS
  0
LAYER
  2
CSLAYER4
 70
    64
 62
     7
  6
CONTINUOUS
  0
LAYER
  2
CSLAYER5
 70
    64
 62
     7
  6
CONTINUOUS
  0
LAYER
  2
CSLAYER6
 70
    64
 62
     7
  6
CONTINUOUS
  0
LAYER
  2
CSLAYER7
 70
    64
 62
     7
  6
CONTINUOUS
  0
LAYER
  2
CSLAYER8
 70
    64
 62
     7
  6
CONTINUOUS
  0
LAYER
  2
CSLAYER9
 70
    64
 62
     7
  6
CONTINUOUS
  0
LAYER
  2
CSLAYER10
 70
    64
 62
     7
  6
CONTINUOUS
  0
LAYER
  2
CSLAYER11
 70
    64
 62
     7
  6
CONTINUOUS
  0
LAYER
  2
CSLAYER12
 70
    64
 62
     7
  6
CONTINUOUS
  0
LAYER
  2
CSLAYER13
 70
    64
 62
     7
  6
CONTINUOUS
  0
LAYER
  2
CSLAYER14
 70
    64
 62
     7
  6
CONTINUOUS
  0
LAYER
  2
CSLAYER15
 70
    64
 62
     7
  6
CONTINUOUS
  0
LAYER
  2
CSLAYER16
 70
    64
 62
     7
  6
CONTINUOUS
  0
ENDTAB
  0
TABLE
  2
STYLE
 70
     1
  0
STYLE
  2
SX_FONT
 70
     0
 40
1.0
 41
1.0
 50
0.0
 71
     0
 42
1.0
  3
monotxt
  4
bigfont
  0
ENDTAB
  0
TABLE
  2
VIEW
 70
     0
  0
ENDTAB
  0
ENDSEC
  0
SECTION
  2
BLOCKS
  0
BLOCK
  8
CSLAYER1
  2
*D0000
 70
    65
 10
0.0
 20
0.0
 30
0.0
  0
LINE
  8
CSLAYER1
  6
CONTINUOUS
 62
     7
 10
85.914063
 20
166.500000
 11
85.914063
 21
171.549634
  0
LINE
  8
CSLAYER1
  6
CONTINUOUS
 62
     7
 10
115.914063
 20
166.500000
 11
115.914063
 21
171.549634
  0
LINE
  8
CSLAYER1
  6
CONTINUOUS
 62
     7
 10
85.914063
 20
170.549634
 11
115.914063
 21
170.549634
  0
LINE
  8
CSLAYER1
  6
CONTINUOUS
 62
     7
 10
85.914063
 20
170.549634
 11
89.777766
 21
171.584910
  0
LINE
  8
CSLAYER1
  6
CONTINUOUS
 62
     7
 10
85.914063
 20
170.549634
 11
89.777766
 21
169.514358
  0
LINE
  8
CSLAYER1
  6
CONTINUOUS
 62
     7
 10
115.914063
 20
170.549634
 11
112.050359
 21
171.584910
  0
LINE
  8
CSLAYER1
  6
CONTINUOUS
 62
     7
 10
115.914063
 20
170.549634
 11
112.050359
 21
169.514358
  0
TEXT
  8
CSLAYER1
 62
     7
 10
97.914063
 20
171.549637
 40
4.000000
 41
0.900000
  1
30
 50
0.000000
 51
0.000000
  7
SX_FONT
 72
     5
 11
103.914063
 21
171.549637
  0
ENDBLK
  8
0
  0
BLOCK
  8
CSLAYER1
  2
*D0001
 70
    65
 10
0.0
 20
0.0
 30
0.0
  0
LINE
  8
CSLAYER1
  6
CONTINUOUS
 62
     7
 10
121.914063
 20
145.500000
 11
126.805544
 21
145.500000
  0
LINE
  8
CSLAYER1
  6
CONTINUOUS
 62
     7
 10
121.914063
 20
160.500000
 11
126.805544
 21
160.500000
  0
LINE
  8
CSLAYER1
  6
CONTINUOUS
 62
     7
 10
125.805544
 20
145.500000
 11
125.805544
 21
160.500000
  0
LINE
  8
CSLAYER1
  6
CONTINUOUS
 62
     7
 10
125.805544
 20
145.500000
 11
124.770268
 21
149.363703
  0
LINE
  8
CSLAYER1
  6
CONTINUOUS
 62
     7
 10
125.805544
 20
145.500000
 11
126.840820
 21
149.363703
  0
LINE
  8
CSLAYER1
  6
CONTINUOUS
 62
     7
 10
125.805544
 20
160.500000
 11
124.770268
 21
156.636297
  0
LINE
  8
CSLAYER1
  6
CONTINUOUS
 62
     7
 10
125.805544
 20
160.500000
 11
126.840820
 21
156.636297
  0
TEXT
  8
CSLAYER1
 62
     7
 10
131.034164
 20
150.120911
 40
4.000000
 41
0.900000
  1
15
 50
90.000000
 51
0.000000
  7
SX_FONT
 72
     5
 11
131.034164
 21
156.120911
  0
ENDBLK
  8
0
  0
ENDSEC
  0
SECTION
  2
ENTITIES
  0
LINE
  8
CSLAYER2
  6
CONTINUOUS
 62
     7
 10
115.914063
 20
145.500000
 11
115.914063
 21
157.700000
  0
ARC
  8
CSLAYER4
  6
CONTINUOUS
 62
     7
 10
91.983218
 20
150.022337
 40
3.267719
 50
93.530444
 51
165.754081
  0
ARC
  8
CSLAYER2
  6
CONTINUOUS
 62
     7
 10
101.277409
 20
157.946770
 40
5.841867
 50
266.363446
 51
357.579013
  0
ARC
  8
CSLAYER2
  6
CONTINUOUS
 62
     7
 10
111.514063
 20
157.700000
 40
2.800000
 50
0.000000
 51
180.000000
  0
LINE
  8
CSLAYER2
  6
CONTINUOUS
 62
     7
 10
114.314062
 20
157.700000
 11
115.914063
 21
157.700000
  0
ARC
  8
CSLAYER4
  6
CONTINUOUS
 62
     7
 10
92.566792
 20
145.466490
 40
7.856659
 50
80.272008
 51
95.732800
  0
ARC
  8
CSLAYER4
  6
CONTINUOUS
 62
     7
 10
101.115257
 20
161.860613
 40
9.746176
 50
260.272008
 51
268.774874
  0
LINE
  8
CSLAYER2
  6
CONTINUOUS
 62
     7
 10
107.110794
 20
157.700000
 11
108.714063
 21
157.700000
  0
LINE
  8
CSLAYER2
  6
CONTINUOUS
 62
     7
 10
85.914063
 20
148.700000
 11
88.514063
 21
148.700000
  0
LINE
  8
CSLAYER2
  6
CONTINUOUS
 62
     7
 10
85.914063
 20
148.700000
 11
85.914063
 21
145.500000
  0
LINE
  8
CSLAYER2
  6
CONTINUOUS
 62
     7
 10
85.914063
 20
145.500000
 11
115.914063
 21
145.500000
  0
ARC
  8
CSLAYER1
  6
CONTINUOUS
 62
     7
 10
98.508471
 20
148.365628
 40
10.000000
 50
165.754081
 51
178.083835
  0
LINE
  8
CSLAYER1
  6
CONTINUOUS
 62
     7
 10
99.468437
 20
152.254577
 11
93.894339
 21
153.210178
  0
TEXT
  8
CSLAYER1
 62
     7
 10
85.977928
 20
85.159630
 40
10.000000
 41
0.630000
  1
FM-2170
 50
0.000000
 51
0.000000
  7
SX_FONT
 72
     5
 11
127.977928
 21
85.159630
  0
DIMENSION
  8
CSLAYER1
 62
     7
  2
*D0000
 10
115.914063
 20
170.549634
 11
100.914063
 21
171.549637
 13
85.914063
 23
165.500000
 14
115.914063
 24
165.500000
 70
1
  0
DIMENSION
  8
CSLAYER1
 62
     7
  2
*D0001
 10
125.805544
 20
160.500000
 11
131.034164
 21
153.120911
 13
120.914063
 23
145.500000
 14
120.914063
 24
160.500000
 50
90.000000
 70
1
  0
TEXT
  8
CSLAYER1
 62
     7
 10
142.099243
 20
85.305519
 40
10.000000
 41
0.642857
  1
30x15
 50
0.000000
 51
0.000000
  7
SX_FONT
 72
     5
 11
172.099243
 21
85.305519
  0
TEXT
  8
CSLAYER1
 62
     7
 10
86.575836
 20
73.618454
 40
5.000000
 41
0.612766
  1
カタログ Vol. 1  P64
 50
0.000000
 51
0.000000
  7
SX_FONT
 72
     5
 11
134.575836
 21
73.618454
  0
TEXT
  8
CSLAYER1
 62
     7
 10
86.657194
 20
64.063048
 40
4.960742
 41
0.729057
  1
ホ%%dケットカタロク゛ Vol. 1 P37
 50
0.000000
 51
0.000000
  7
SX_FONT
 72
     5
 11
161.401552
 21
64.063048
  0
ENDSEC
  0
EOF
