  0
SECTION
  2
HEADER
  9
$ACADVER
  1
AC1006
  9
$INSBASE
 10
80.262980
 20
162.175700
 30
0.0
  9
$EXTMIN
 10
80.262980
 20
162.175700
  9
$EXTMAX
 10
290.262980
 20
459.175700
  9
$LIMMIN
 10
80.262980
 20
162.175700
  9
$LIMMAX
 10
290.262980
 20
459.175700
  9
$VIEWCTR
 10
185.262980
 20
310.675700
  9
$VIEWSIZE
 40
297.000000
  9
$SNAPMODE
 70
     0
  9
$SNAPUNIT
 10
1.0
 20
1.0
  9
$SNAPBASE
 10
0.0
 20
0.0
  9
$SNAPANG
 50
0.0
  9
$SNAPSTYLE
 70
     0
  9
$SNAPISOPAIR
 70
     0
  9
$GRIDMODE
 70
     0
  9
$GRIDUNIT
 10
0.0
 20
0.0
  9
$ORTHOMODE
 70
     0
  9
$REGENMODE
 70
     1
  9
$FILLMODE
 70
     1
  9
$QTEXTMODE
 70
     0
  9
$DRAGMODE
 70
     2
  9
$LTSCALE
 40
15.000000
  9
$OSMODE
 70
     0
  9
$ATTMODE
 70
     1
  9
$TEXTSIZE
 40
0.2
  9
$TRACEWID
 40
0.05
  9
$TEXTSTYLE
  7
STANDARD
  9
$CLAYER
  8
CSLAYER3
  9
$CELTYPE
  6
BYLAYER
  9
$CECOLOR
 62
   256
  9
$DIMSCALE
 40
1.0
  9
$DIMASZ
 40
0.18
  9
$DIMEXO
 40
0.0625
  9
$DIMDLI
 40
0.38
  9
$DIMRND
 40
0.0
  9
$DIMDLE
 40
0.0
  9
$DIMEXE
 40
0.18
  9
$DIMTP
 40
0.0
  9
$DIMTM
 40
0.0
  9
$DIMTXT
 40
0.18
  9
$DIMCEN
 40
0.09
  9
$DIMTSZ
 40
0.0
  9
$DIMTOL
 70
     0
  9
$DIMLIM
 70
     0
  9
$DIMTIH
 70
     1
  9
$DIMTOH
 70
     1
  9
$DIMSE1
 70
     0
  9
$DIMSE2
 70
     0
  9
$DIMTAD
 70
     0
  9
$DIMZIN
 70
     0
  9
$DIMBLK
  1

  9
$LUNITS
 70
     2
  9
$LUPREC
 70
     4
  9
$AXISMODE
 70
     0
  9
$AXISUNIT
 10
0.0
 20
0.0
  9
$SKETCHINC
 40
0.1
  9
$FILLETRAD
 40
0.0
  9
$AUNITS
 70
     0
  9
$AUPREC
 70
     0
  9
$MENU
  1
ACAD
  9
$ELEVATION
 40
0.0
  9
$THICKNESS
 40
0.0
  9
$VIEWDIR
 10
0.0
 20
0.0
 30
1.0
  9
$LIMCHECK
 70
     0
  9
$BLIPMODE
 70
     1
  9
$CHAMFERA
 40
0.0
  9
$CHAMFERB
 40
0.0
  9
$FASTZOOM
 70
     1
  9
$SKPOLY
 70
     0
  9
$TDCREATE
 40
0.000000
  9
$TDUPDATE
 40
0.000000
  9
$TDINDWG
 40
0.0
  9
$TDUSRTIMER
 40
0.0
  9
$USRTIMER
 70
     1
  9
$ANGBASE
 50
0.0
  9
$ANGDIR
 70
     0
  9
$PDMODE
 70
     0
  9
$PDSIZE
 40
0.0
  9
$PLINEWID
 40
0.0
  9
$COORDS
 70
     0
  9
$USERI1
 70
     0
  9
$USERI2
 70
     0
  9
$USERI3
 70
     0
  9
$USERI4
 70
     0
  9
$USERI5
 70
     0
  9
$USERR1
 40
0.0
  9
$USERR2
 40
0.0
  9
$USERR3
 40
0.0
  9
$USERR4
 40
0.0
  9
$USERR5
 40
0.0
  0
ENDSEC
  0
SECTION
  2
TABLES
  0
TABLE
  2
LTYPE
 70
     9
  0
LTYPE
  2
CONTINUOUS
 70
    64
  3
Solid line
 72
    65
 73
     0
 40
0.0
  0
LTYPE
  2
DASHED
 70
    64
  3
__ __ __ __ __ __ __ __ __ __ __ __ __ __ __
 72
    65
 73
     2
 40
0.75
 49
0.5
 49
-0.25
  0
LTYPE
  2
HIDDEN
 70
    64
  3
_ _ _ _ _ _ _ _ _ _ _ _ _ _ _ _ _ _ _ _ _ _ _
 72
    65
 73
     2
 40
0.375
 49
0.25
 49
-0.125
  0
LTYPE
  2
DOT
 70
    64
  3
...............................................
 72
    65
 73
     2
 40
0.25
 49
0.0
 49
-0.25
  0
LTYPE
  2
DASHDOT
 70
    64
  3
__ . __ . __ . __ . __ . __ . __ . __ . __ . __
 72
    65
 73
     4
 40
1.0
 49
0.5
 49
-0.25
 49
0.0
 49
-0.25
  0
LTYPE
  2
DIVIDE
 70
    64
  3
__ . . __ . . __ . . __ . . __ . . __ . . __
 72
    65
 73
     6
 40
1.25
 49
0.5
 49
-0.25
 49
0.0
 49
-0.25
 49
0.0
 49
-0.25
  0
LTYPE
  2
CENTER
 70
    64
  3
____ _ ____ _ ____ _ ____ _ ____ _ ____ _ ____ 
 72
    65
 73
     4
 40
2.0
 49
1.25
 49
-0.25
 49
0.25
 49
-0.25
  0
LTYPE
  2
PHANTOM
 70
    64
  3
______  __  __  ______  __  __  ______  __  __ 
 72
    65
 73
     6
 40
2.5
 49
1.25
 49
-0.25
 49
0.25
 49
-0.25
 49
0.25
 49
-0.25
  0
LTYPE
  2
BORDER
 70
    64
  3
__ __ . __ __ . __ __ . __ __ . __ __ . __ __ .
 72
    65
 73
     6
 40
1.75
 49
0.5
 49
-0.25
 49
0.5
 49
-0.25
 49
0.0
 49
-0.25
  0
ENDTAB
  0
TABLE
  2
LAYER
 70
    16
  0
LAYER
  2
CSLAYER1
 70
    64
 62
     7
  6
CONTINUOUS
  0
LAYER
  2
CSLAYER2
 70
    64
 62
     7
  6
CONTINUOUS
  0
LAYER
  2
CSLAYER3
 70
    64
 62
     7
  6
CONTINUOUS
  0
LAYER
  2
CSLAYER4
 70
    64
 62
     7
  6
CONTINUOUS
  0
LAYER
  2
CSLAYER5
 70
    64
 62
     7
  6
CONTINUOUS
  0
LAYER
  2
CSLAYER6
 70
    64
 62
     7
  6
CONTINUOUS
  0
LAYER
  2
CSLAYER7
 70
    64
 62
     7
  6
CONTINUOUS
  0
LAYER
  2
CSLAYER8
 70
    64
 62
     7
  6
CONTINUOUS
  0
LAYER
  2
CSLAYER9
 70
    64
 62
     7
  6
CONTINUOUS
  0
LAYER
  2
CSLAYER10
 70
    64
 62
     7
  6
CONTINUOUS
  0
LAYER
  2
CSLAYER11
 70
    64
 62
     7
  6
CONTINUOUS
  0
LAYER
  2
CSLAYER12
 70
    64
 62
     7
  6
CONTINUOUS
  0
LAYER
  2
CSLAYER13
 70
    64
 62
     7
  6
CONTINUOUS
  0
LAYER
  2
CSLAYER14
 70
    64
 62
     7
  6
CONTINUOUS
  0
LAYER
  2
CSLAYER15
 70
    64
 62
     7
  6
CONTINUOUS
  0
LAYER
  2
CSLAYER16
 70
    64
 62
     7
  6
CONTINUOUS
  0
ENDTAB
  0
TABLE
  2
STYLE
 70
     1
  0
STYLE
  2
SX_FONT
 70
     0
 40
1.0
 41
1.0
 50
0.0
 71
     0
 42
1.0
  3
monotxt
  4
bigfont
  0
ENDTAB
  0
TABLE
  2
VIEW
 70
     0
  0
ENDTAB
  0
ENDSEC
  0
SECTION
  2
BLOCKS
  0
BLOCK
  8
CSLAYER1
  2
*D0000
 70
    65
 10
0.0
 20
0.0
 30
0.0
  0
LINE
  8
CSLAYER1
  6
CONTINUOUS
 62
     7
 10
79.960938
 20
158.390625
 11
79.960938
 21
163.328320
  0
LINE
  8
CSLAYER1
  6
CONTINUOUS
 62
     7
 10
109.960938
 20
158.390625
 11
109.960938
 21
163.328320
  0
LINE
  8
CSLAYER1
  6
CONTINUOUS
 62
     7
 10
79.960938
 20
162.328320
 11
109.960938
 21
162.328320
  0
LINE
  8
CSLAYER1
  6
CONTINUOUS
 62
     7
 10
79.960938
 20
162.328320
 11
83.824641
 21
163.363596
  0
LINE
  8
CSLAYER1
  6
CONTINUOUS
 62
     7
 10
79.960938
 20
162.328320
 11
83.824641
 21
161.293044
  0
LINE
  8
CSLAYER1
  6
CONTINUOUS
 62
     7
 10
109.960938
 20
162.328320
 11
106.097234
 21
163.363596
  0
LINE
  8
CSLAYER1
  6
CONTINUOUS
 62
     7
 10
109.960938
 20
162.328320
 11
106.097234
 21
161.293044
  0
TEXT
  8
CSLAYER1
 62
     7
 10
91.960938
 20
163.328323
 40
4.000000
 41
0.900000
  1
30
 50
0.000000
 51
0.000000
  7
SX_FONT
 72
     5
 11
97.960938
 21
163.328323
  0
ENDBLK
  8
0
  0
BLOCK
  8
CSLAYER1
  2
*D0001
 70
    65
 10
0.0
 20
0.0
 30
0.0
  0
LINE
  8
CSLAYER1
  6
CONTINUOUS
 62
     7
 10
115.960938
 20
137.390625
 11
120.963480
 21
137.390625
  0
LINE
  8
CSLAYER1
  6
CONTINUOUS
 62
     7
 10
115.960938
 20
152.390625
 11
120.963480
 21
152.390625
  0
LINE
  8
CSLAYER1
  6
CONTINUOUS
 62
     7
 10
119.963480
 20
137.390625
 11
119.963480
 21
152.390625
  0
LINE
  8
CSLAYER1
  6
CONTINUOUS
 62
     7
 10
119.963480
 20
137.390625
 11
118.928204
 21
141.254328
  0
LINE
  8
CSLAYER1
  6
CONTINUOUS
 62
     7
 10
119.963480
 20
137.390625
 11
120.998757
 21
141.254328
  0
LINE
  8
CSLAYER1
  6
CONTINUOUS
 62
     7
 10
119.963480
 20
152.390625
 11
118.928204
 21
148.526922
  0
LINE
  8
CSLAYER1
  6
CONTINUOUS
 62
     7
 10
119.963480
 20
152.390625
 11
120.998757
 21
148.526922
  0
TEXT
  8
CSLAYER1
 62
     7
 10
125.123299
 20
141.784927
 40
4.000000
 41
0.900000
  1
15
 50
90.000000
 51
0.000000
  7
SX_FONT
 72
     5
 11
125.123299
 21
147.784927
  0
ENDBLK
  8
0
  0
ENDSEC
  0
SECTION
  2
ENTITIES
  0
LINE
  8
CSLAYER2
  6
CONTINUOUS
 62
     7
 10
98.074145
 20
149.786851
 11
100.196787
 21
148.466097
  0
ARC
  8
CSLAYER2
  6
CONTINUOUS
 62
     7
 10
88.521839
 20
147.344463
 40
3.500000
 50
232.546300
 51
352.693430
  0
ARC
  8
CSLAYER2
  6
CONTINUOUS
 62
     7
 10
83.960938
 20
141.390625
 40
4.000000
 50
52.546300
 51
90.000000
  0
ARC
  8
CSLAYER2
  6
CONTINUOUS
 62
     7
 10
83.960938
 20
141.390625
 40
4.000000
 50
90.000000
 51
180.000000
  0
ARC
  8
CSLAYER2
  6
CONTINUOUS
 62
     7
 10
95.960937
 20
146.390625
 40
4.000000
 50
58.109208
 51
90.000000
  0
ARC
  8
CSLAYER2
  6
CONTINUOUS
 62
     7
 10
95.960938
 20
146.390625
 40
4.000000
 50
90.000000
 51
172.693430
  0
ARC
  8
CSLAYER2
  6
CONTINUOUS
 62
     7
 10
100.460937
 20
148.890625
 40
0.500000
 50
238.109208
 51
270.000000
  0
ARC
  8
CSLAYER2
  6
CONTINUOUS
 62
     7
 10
100.460938
 20
148.890625
 40
0.500000
 50
-90.000000
 51
0.000000
  0
LINE
  8
CSLAYER2
  6
CONTINUOUS
 62
     7
 10
100.960938
 20
148.890625
 11
100.960938
 21
150.890625
  0
LINE
  8
CSLAYER2
  6
CONTINUOUS
 62
     7
 10
100.960938
 20
150.890625
 11
109.960938
 21
152.390625
  0
LINE
  8
CSLAYER2
  6
CONTINUOUS
 62
     7
 10
109.960938
 20
152.390625
 11
109.960938
 21
137.390625
  0
LINE
  8
CSLAYER2
  6
CONTINUOUS
 62
     7
 10
109.960938
 20
137.390625
 11
79.960938
 21
137.390625
  0
LINE
  8
CSLAYER2
  6
CONTINUOUS
 62
     7
 10
79.960938
 20
137.390625
 11
79.960938
 21
141.390625
  0
TEXT
  8
CSLAYER1
 62
     7
 10
79.833443
 20
76.860916
 40
10.000000
 41
0.630000
  1
FM-2122
 50
0.000000
 51
0.000000
  7
SX_FONT
 72
     5
 11
121.833443
 21
76.860916
  0
DIMENSION
  8
CSLAYER1
 62
     7
  2
*D0000
 10
109.960938
 20
162.328320
 11
94.960938
 21
163.328323
 13
79.960938
 23
157.390625
 14
109.960938
 24
157.390625
 70
1
  0
DIMENSION
  8
CSLAYER1
 62
     7
  2
*D0001
 10
119.963480
 20
152.390625
 11
125.123299
 21
144.784927
 13
114.960938
 23
137.390625
 14
114.960938
 24
152.390625
 50
90.000000
 70
1
  0
TEXT
  8
CSLAYER1
 62
     7
 10
136.349258
 20
77.414482
 40
10.000000
 41
0.642857
  1
30x15
 50
0.000000
 51
0.000000
  7
SX_FONT
 72
     5
 11
166.349258
 21
77.414482
  0
TEXT
  8
CSLAYER1
 62
     7
 10
80.752129
 20
65.586769
 40
5.000000
 41
0.612766
  1
カタログ Vol. 1  P55
 50
0.000000
 51
0.000000
  7
SX_FONT
 72
     5
 11
128.752129
 21
65.586769
  0
TEXT
  8
CSLAYER1
 62
     7
 10
80.930845
 20
55.135253
 40
4.960742
 41
0.729057
  1
ホ%%dケットカタロク゛ Vol. 1 P28
 50
0.000000
 51
0.000000
  7
SX_FONT
 72
     5
 11
155.675203
 21
55.135253
  0
ENDSEC
  0
EOF
