  0
SECTION
  2
HEADER
  9
$ACADVER
  1
AC1006
  9
$INSBASE
 10
83.871012
 20
165.336589
 30
0.0
  9
$EXTMIN
 10
83.871012
 20
165.336589
  9
$EXTMAX
 10
293.871012
 20
462.336589
  9
$LIMMIN
 10
83.871012
 20
165.336589
  9
$LIMMAX
 10
293.871012
 20
462.336589
  9
$VIEWCTR
 10
188.871012
 20
313.836589
  9
$VIEWSIZE
 40
297.000000
  9
$SNAPMODE
 70
     0
  9
$SNAPUNIT
 10
1.0
 20
1.0
  9
$SNAPBASE
 10
0.0
 20
0.0
  9
$SNAPANG
 50
0.0
  9
$SNAPSTYLE
 70
     0
  9
$SNAPISOPAIR
 70
     0
  9
$GRIDMODE
 70
     0
  9
$GRIDUNIT
 10
0.0
 20
0.0
  9
$ORTHOMODE
 70
     0
  9
$REGENMODE
 70
     1
  9
$FILLMODE
 70
     1
  9
$QTEXTMODE
 70
     0
  9
$DRAGMODE
 70
     2
  9
$LTSCALE
 40
15.000000
  9
$OSMODE
 70
     0
  9
$ATTMODE
 70
     1
  9
$TEXTSIZE
 40
0.2
  9
$TRACEWID
 40
0.05
  9
$TEXTSTYLE
  7
STANDARD
  9
$CLAYER
  8
CSLAYER3
  9
$CELTYPE
  6
BYLAYER
  9
$CECOLOR
 62
   256
  9
$DIMSCALE
 40
1.0
  9
$DIMASZ
 40
0.18
  9
$DIMEXO
 40
0.0625
  9
$DIMDLI
 40
0.38
  9
$DIMRND
 40
0.0
  9
$DIMDLE
 40
0.0
  9
$DIMEXE
 40
0.18
  9
$DIMTP
 40
0.0
  9
$DIMTM
 40
0.0
  9
$DIMTXT
 40
0.18
  9
$DIMCEN
 40
0.09
  9
$DIMTSZ
 40
0.0
  9
$DIMTOL
 70
     0
  9
$DIMLIM
 70
     0
  9
$DIMTIH
 70
     1
  9
$DIMTOH
 70
     1
  9
$DIMSE1
 70
     0
  9
$DIMSE2
 70
     0
  9
$DIMTAD
 70
     0
  9
$DIMZIN
 70
     0
  9
$DIMBLK
  1

  9
$LUNITS
 70
     2
  9
$LUPREC
 70
     4
  9
$AXISMODE
 70
     0
  9
$AXISUNIT
 10
0.0
 20
0.0
  9
$SKETCHINC
 40
0.1
  9
$FILLETRAD
 40
0.0
  9
$AUNITS
 70
     0
  9
$AUPREC
 70
     0
  9
$MENU
  1
ACAD
  9
$ELEVATION
 40
0.0
  9
$THICKNESS
 40
0.0
  9
$VIEWDIR
 10
0.0
 20
0.0
 30
1.0
  9
$LIMCHECK
 70
     0
  9
$BLIPMODE
 70
     1
  9
$CHAMFERA
 40
0.0
  9
$CHAMFERB
 40
0.0
  9
$FASTZOOM
 70
     1
  9
$SKPOLY
 70
     0
  9
$TDCREATE
 40
0.000000
  9
$TDUPDATE
 40
0.000000
  9
$TDINDWG
 40
0.0
  9
$TDUSRTIMER
 40
0.0
  9
$USRTIMER
 70
     1
  9
$ANGBASE
 50
0.0
  9
$ANGDIR
 70
     0
  9
$PDMODE
 70
     0
  9
$PDSIZE
 40
0.0
  9
$PLINEWID
 40
0.0
  9
$COORDS
 70
     0
  9
$USERI1
 70
     0
  9
$USERI2
 70
     0
  9
$USERI3
 70
     0
  9
$USERI4
 70
     0
  9
$USERI5
 70
     0
  9
$USERR1
 40
0.0
  9
$USERR2
 40
0.0
  9
$USERR3
 40
0.0
  9
$USERR4
 40
0.0
  9
$USERR5
 40
0.0
  0
ENDSEC
  0
SECTION
  2
TABLES
  0
TABLE
  2
LTYPE
 70
     9
  0
LTYPE
  2
CONTINUOUS
 70
    64
  3
Solid line
 72
    65
 73
     0
 40
0.0
  0
LTYPE
  2
DASHED
 70
    64
  3
__ __ __ __ __ __ __ __ __ __ __ __ __ __ __
 72
    65
 73
     2
 40
0.75
 49
0.5
 49
-0.25
  0
LTYPE
  2
HIDDEN
 70
    64
  3
_ _ _ _ _ _ _ _ _ _ _ _ _ _ _ _ _ _ _ _ _ _ _
 72
    65
 73
     2
 40
0.375
 49
0.25
 49
-0.125
  0
LTYPE
  2
DOT
 70
    64
  3
...............................................
 72
    65
 73
     2
 40
0.25
 49
0.0
 49
-0.25
  0
LTYPE
  2
DASHDOT
 70
    64
  3
__ . __ . __ . __ . __ . __ . __ . __ . __ . __
 72
    65
 73
     4
 40
1.0
 49
0.5
 49
-0.25
 49
0.0
 49
-0.25
  0
LTYPE
  2
DIVIDE
 70
    64
  3
__ . . __ . . __ . . __ . . __ . . __ . . __
 72
    65
 73
     6
 40
1.25
 49
0.5
 49
-0.25
 49
0.0
 49
-0.25
 49
0.0
 49
-0.25
  0
LTYPE
  2
CENTER
 70
    64
  3
____ _ ____ _ ____ _ ____ _ ____ _ ____ _ ____ 
 72
    65
 73
     4
 40
2.0
 49
1.25
 49
-0.25
 49
0.25
 49
-0.25
  0
LTYPE
  2
PHANTOM
 70
    64
  3
______  __  __  ______  __  __  ______  __  __ 
 72
    65
 73
     6
 40
2.5
 49
1.25
 49
-0.25
 49
0.25
 49
-0.25
 49
0.25
 49
-0.25
  0
LTYPE
  2
BORDER
 70
    64
  3
__ __ . __ __ . __ __ . __ __ . __ __ . __ __ .
 72
    65
 73
     6
 40
1.75
 49
0.5
 49
-0.25
 49
0.5
 49
-0.25
 49
0.0
 49
-0.25
  0
ENDTAB
  0
TABLE
  2
LAYER
 70
    16
  0
LAYER
  2
CSLAYER1
 70
    64
 62
     7
  6
CONTINUOUS
  0
LAYER
  2
CSLAYER2
 70
    64
 62
     7
  6
CONTINUOUS
  0
LAYER
  2
CSLAYER3
 70
    64
 62
     7
  6
CONTINUOUS
  0
LAYER
  2
CSLAYER4
 70
    64
 62
     7
  6
CONTINUOUS
  0
LAYER
  2
CSLAYER5
 70
    64
 62
     7
  6
CONTINUOUS
  0
LAYER
  2
CSLAYER6
 70
    64
 62
     7
  6
CONTINUOUS
  0
LAYER
  2
CSLAYER7
 70
    64
 62
     7
  6
CONTINUOUS
  0
LAYER
  2
CSLAYER8
 70
    64
 62
     7
  6
CONTINUOUS
  0
LAYER
  2
CSLAYER9
 70
    64
 62
     7
  6
CONTINUOUS
  0
LAYER
  2
CSLAYER10
 70
    64
 62
     7
  6
CONTINUOUS
  0
LAYER
  2
CSLAYER11
 70
    64
 62
     7
  6
CONTINUOUS
  0
LAYER
  2
CSLAYER12
 70
    64
 62
     7
  6
CONTINUOUS
  0
LAYER
  2
CSLAYER13
 70
    64
 62
     7
  6
CONTINUOUS
  0
LAYER
  2
CSLAYER14
 70
    64
 62
     7
  6
CONTINUOUS
  0
LAYER
  2
CSLAYER15
 70
    64
 62
     7
  6
CONTINUOUS
  0
LAYER
  2
CSLAYER16
 70
    64
 62
     7
  6
CONTINUOUS
  0
ENDTAB
  0
TABLE
  2
STYLE
 70
     1
  0
STYLE
  2
SX_FONT
 70
     0
 40
1.0
 41
1.0
 50
0.0
 71
     0
 42
1.0
  3
monotxt
  4
bigfont
  0
ENDTAB
  0
TABLE
  2
VIEW
 70
     0
  0
ENDTAB
  0
ENDSEC
  0
SECTION
  2
BLOCKS
  0
BLOCK
  8
CSLAYER1
  2
*D0000
 70
    65
 10
0.0
 20
0.0
 30
0.0
  0
LINE
  8
CSLAYER1
  6
CONTINUOUS
 62
     7
 10
64.794417
 20
167.834875
 11
64.794417
 21
172.924153
  0
LINE
  8
CSLAYER1
  6
CONTINUOUS
 62
     7
 10
94.794417
 20
167.834875
 11
94.794417
 21
172.924153
  0
LINE
  8
CSLAYER1
  6
CONTINUOUS
 62
     7
 10
64.794417
 20
171.924153
 11
94.794417
 21
171.924153
  0
LINE
  8
CSLAYER1
  6
CONTINUOUS
 62
     7
 10
64.794417
 20
171.924153
 11
68.658120
 21
172.959429
  0
LINE
  8
CSLAYER1
  6
CONTINUOUS
 62
     7
 10
64.794417
 20
171.924153
 11
68.658120
 21
170.888877
  0
LINE
  8
CSLAYER1
  6
CONTINUOUS
 62
     7
 10
94.794417
 20
171.924153
 11
90.930714
 21
172.959429
  0
LINE
  8
CSLAYER1
  6
CONTINUOUS
 62
     7
 10
94.794417
 20
171.924153
 11
90.930714
 21
170.888877
  0
TEXT
  8
CSLAYER1
 62
     7
 10
76.794418
 20
172.924149
 40
4.000000
 41
0.900000
  1
30
 50
0.000000
 51
0.000000
  7
SX_FONT
 72
     5
 11
82.794418
 21
172.924149
  0
ENDBLK
  8
0
  0
BLOCK
  8
CSLAYER1
  2
*D0001
 70
    65
 10
0.0
 20
0.0
 30
0.0
  0
LINE
  8
CSLAYER1
  6
CONTINUOUS
 62
     7
 10
100.794417
 20
131.834875
 11
105.914720
 21
131.834875
  0
LINE
  8
CSLAYER1
  6
CONTINUOUS
 62
     7
 10
100.794417
 20
161.834875
 11
105.914720
 21
161.834875
  0
LINE
  8
CSLAYER1
  6
CONTINUOUS
 62
     7
 10
104.914720
 20
131.834875
 11
104.914720
 21
161.834875
  0
LINE
  8
CSLAYER1
  6
CONTINUOUS
 62
     7
 10
104.914720
 20
131.834875
 11
103.879443
 21
135.698579
  0
LINE
  8
CSLAYER1
  6
CONTINUOUS
 62
     7
 10
104.914720
 20
131.834875
 11
105.949996
 21
135.698579
  0
LINE
  8
CSLAYER1
  6
CONTINUOUS
 62
     7
 10
104.914720
 20
161.834875
 11
103.879443
 21
157.971172
  0
LINE
  8
CSLAYER1
  6
CONTINUOUS
 62
     7
 10
104.914720
 20
161.834875
 11
105.949996
 21
157.971172
  0
TEXT
  8
CSLAYER1
 62
     7
 10
109.893951
 20
143.474762
 40
4.000000
 41
0.900000
  1
30
 50
90.000000
 51
0.000000
  7
SX_FONT
 72
     5
 11
109.893951
 21
149.474762
  0
ENDBLK
  8
0
  0
ENDSEC
  0
SECTION
  2
ENTITIES
  0
ARC
  8
CSLAYER2
  6
CONTINUOUS
 62
     7
 10
67.794417
 20
158.834875
 40
13.500000
 50
283.189636
 51
346.810364
  0
LINE
  8
CSLAYER2
  6
CONTINUOUS
 62
     7
 10
94.794417
 20
131.834875
 11
94.794417
 21
161.834875
  0
LINE
  8
CSLAYER2
  6
CONTINUOUS
 62
     7
 10
94.794417
 20
158.834875
 11
94.794417
 21
161.834875
  0
LINE
  8
CSLAYER2
  6
CONTINUOUS
 62
     7
 10
87.921434
 20
161.834875
 11
87.921434
 21
158.834875
  0
LINE
  8
CSLAYER2
  6
CONTINUOUS
 62
     7
 10
94.794417
 20
161.834875
 11
87.921434
 21
161.834875
  0
LINE
  8
CSLAYER2
  6
CONTINUOUS
 62
     7
 10
94.794417
 20
161.834875
 11
91.794417
 21
161.834875
  0
LINE
  8
CSLAYER2
  6
CONTINUOUS
 62
     7
 10
84.831137
 20
158.834875
 11
87.921433
 21
158.834875
  0
ARC
  8
CSLAYER2
  6
CONTINUOUS
 62
     7
 10
84.831137
 20
154.834875
 40
4.000000
 50
90.000000
 51
166.865817
  0
LINE
  8
CSLAYER2
  6
CONTINUOUS
 62
     7
 10
64.794417
 20
131.834875
 11
67.794417
 21
131.834875
  0
LINE
  8
CSLAYER2
  6
CONTINUOUS
 62
     7
 10
64.794417
 20
138.707858
 11
64.794417
 21
131.834875
  0
LINE
  8
CSLAYER2
  6
CONTINUOUS
 62
     7
 10
67.794417
 20
138.707858
 11
64.794417
 21
138.707858
  0
LINE
  8
CSLAYER2
  6
CONTINUOUS
 62
     7
 10
67.794417
 20
138.707858
 11
67.794417
 21
141.798155
  0
LINE
  8
CSLAYER2
  6
CONTINUOUS
 62
     7
 10
64.794417
 20
134.834875
 11
64.794417
 21
131.834875
  0
LINE
  8
CSLAYER2
  6
CONTINUOUS
 62
     7
 10
64.794417
 20
131.834875
 11
94.794417
 21
131.834875
  0
ARC
  8
CSLAYER2
  6
CONTINUOUS
 62
     7
 10
71.794417
 20
141.798155
 40
4.000000
 50
103.134183
 51
180.000000
  0
TEXT
  8
CSLAYER1
 62
     7
 10
64.699562
 20
69.282143
 40
12.000000
 41
0.700000
  1
FM-2040
 50
0.000000
 51
0.000000
  7
SX_FONT
 72
     5
 11
120.699562
 21
69.282143
  0
DIMENSION
  8
CSLAYER1
 62
     7
  2
*D0000
 10
94.794417
 20
171.924153
 11
79.794418
 21
172.924149
 13
64.794417
 23
166.834875
 14
94.794417
 24
166.834875
 70
1
  0
DIMENSION
  8
CSLAYER1
 62
     7
  2
*D0001
 10
104.914720
 20
161.834875
 11
109.893951
 21
146.474762
 13
99.794417
 23
131.834875
 14
99.794417
 24
161.834875
 50
90.000000
 70
1
  0
TEXT
  8
CSLAYER1
 62
     7
 10
138.099152
 20
69.037575
 40
12.000000
 41
0.714286
  1
30x30
 50
0.000000
 51
0.000000
  7
SX_FONT
 72
     5
 11
178.099152
 21
69.037575
  0
TEXT
  8
CSLAYER1
 62
     7
 10
66.204596
 20
46.590117
 40
4.960742
 41
0.729057
  1
ホ%%dケットカタロク゛ Vol. 1 P19
 50
0.000000
 51
0.000000
  7
SX_FONT
 72
     5
 11
140.948953
 21
46.590117
  0
TEXT
  8
CSLAYER1
 62
     7
 10
66.061333
 20
55.492363
 40
5.000000
 41
0.612766
  1
カタログ Vol. 1  P46
 50
0.000000
 51
0.000000
  7
SX_FONT
 72
     5
 11
114.061333
 21
55.492363
  0
ENDSEC
  0
EOF
