  0
SECTION
  2
HEADER
  9
$ACADVER
  1
AC1006
  9
$INSBASE
 10
55.571666
 20
176.134336
 30
0.0
  9
$EXTMIN
 10
55.571666
 20
176.134336
  9
$EXTMAX
 10
265.571666
 20
473.134336
  9
$LIMMIN
 10
55.571666
 20
176.134336
  9
$LIMMAX
 10
265.571666
 20
473.134336
  9
$VIEWCTR
 10
160.571666
 20
324.634336
  9
$VIEWSIZE
 40
297.000000
  9
$SNAPMODE
 70
     0
  9
$SNAPUNIT
 10
1.0
 20
1.0
  9
$SNAPBASE
 10
0.0
 20
0.0
  9
$SNAPANG
 50
0.0
  9
$SNAPSTYLE
 70
     0
  9
$SNAPISOPAIR
 70
     0
  9
$GRIDMODE
 70
     0
  9
$GRIDUNIT
 10
0.0
 20
0.0
  9
$ORTHOMODE
 70
     0
  9
$REGENMODE
 70
     1
  9
$FILLMODE
 70
     1
  9
$QTEXTMODE
 70
     0
  9
$DRAGMODE
 70
     2
  9
$LTSCALE
 40
15.000000
  9
$OSMODE
 70
     0
  9
$ATTMODE
 70
     1
  9
$TEXTSIZE
 40
0.2
  9
$TRACEWID
 40
0.05
  9
$TEXTSTYLE
  7
STANDARD
  9
$CLAYER
  8
CSLAYER3
  9
$CELTYPE
  6
BYLAYER
  9
$CECOLOR
 62
   256
  9
$DIMSCALE
 40
1.0
  9
$DIMASZ
 40
0.18
  9
$DIMEXO
 40
0.0625
  9
$DIMDLI
 40
0.38
  9
$DIMRND
 40
0.0
  9
$DIMDLE
 40
0.0
  9
$DIMEXE
 40
0.18
  9
$DIMTP
 40
0.0
  9
$DIMTM
 40
0.0
  9
$DIMTXT
 40
0.18
  9
$DIMCEN
 40
0.09
  9
$DIMTSZ
 40
0.0
  9
$DIMTOL
 70
     0
  9
$DIMLIM
 70
     0
  9
$DIMTIH
 70
     1
  9
$DIMTOH
 70
     1
  9
$DIMSE1
 70
     0
  9
$DIMSE2
 70
     0
  9
$DIMTAD
 70
     0
  9
$DIMZIN
 70
     0
  9
$DIMBLK
  1

  9
$LUNITS
 70
     2
  9
$LUPREC
 70
     4
  9
$AXISMODE
 70
     0
  9
$AXISUNIT
 10
0.0
 20
0.0
  9
$SKETCHINC
 40
0.1
  9
$FILLETRAD
 40
0.0
  9
$AUNITS
 70
     0
  9
$AUPREC
 70
     0
  9
$MENU
  1
ACAD
  9
$ELEVATION
 40
0.0
  9
$THICKNESS
 40
0.0
  9
$VIEWDIR
 10
0.0
 20
0.0
 30
1.0
  9
$LIMCHECK
 70
     0
  9
$BLIPMODE
 70
     1
  9
$CHAMFERA
 40
0.0
  9
$CHAMFERB
 40
0.0
  9
$FASTZOOM
 70
     1
  9
$SKPOLY
 70
     0
  9
$TDCREATE
 40
0.000000
  9
$TDUPDATE
 40
0.000000
  9
$TDINDWG
 40
0.0
  9
$TDUSRTIMER
 40
0.0
  9
$USRTIMER
 70
     1
  9
$ANGBASE
 50
0.0
  9
$ANGDIR
 70
     0
  9
$PDMODE
 70
     0
  9
$PDSIZE
 40
0.0
  9
$PLINEWID
 40
0.0
  9
$COORDS
 70
     0
  9
$USERI1
 70
     0
  9
$USERI2
 70
     0
  9
$USERI3
 70
     0
  9
$USERI4
 70
     0
  9
$USERI5
 70
     0
  9
$USERR1
 40
0.0
  9
$USERR2
 40
0.0
  9
$USERR3
 40
0.0
  9
$USERR4
 40
0.0
  9
$USERR5
 40
0.0
  0
ENDSEC
  0
SECTION
  2
TABLES
  0
TABLE
  2
LTYPE
 70
     9
  0
LTYPE
  2
CONTINUOUS
 70
    64
  3
Solid line
 72
    65
 73
     0
 40
0.0
  0
LTYPE
  2
DASHED
 70
    64
  3
__ __ __ __ __ __ __ __ __ __ __ __ __ __ __
 72
    65
 73
     2
 40
0.75
 49
0.5
 49
-0.25
  0
LTYPE
  2
HIDDEN
 70
    64
  3
_ _ _ _ _ _ _ _ _ _ _ _ _ _ _ _ _ _ _ _ _ _ _
 72
    65
 73
     2
 40
0.375
 49
0.25
 49
-0.125
  0
LTYPE
  2
DOT
 70
    64
  3
...............................................
 72
    65
 73
     2
 40
0.25
 49
0.0
 49
-0.25
  0
LTYPE
  2
DASHDOT
 70
    64
  3
__ . __ . __ . __ . __ . __ . __ . __ . __ . __
 72
    65
 73
     4
 40
1.0
 49
0.5
 49
-0.25
 49
0.0
 49
-0.25
  0
LTYPE
  2
DIVIDE
 70
    64
  3
__ . . __ . . __ . . __ . . __ . . __ . . __
 72
    65
 73
     6
 40
1.25
 49
0.5
 49
-0.25
 49
0.0
 49
-0.25
 49
0.0
 49
-0.25
  0
LTYPE
  2
CENTER
 70
    64
  3
____ _ ____ _ ____ _ ____ _ ____ _ ____ _ ____ 
 72
    65
 73
     4
 40
2.0
 49
1.25
 49
-0.25
 49
0.25
 49
-0.25
  0
LTYPE
  2
PHANTOM
 70
    64
  3
______  __  __  ______  __  __  ______  __  __ 
 72
    65
 73
     6
 40
2.5
 49
1.25
 49
-0.25
 49
0.25
 49
-0.25
 49
0.25
 49
-0.25
  0
LTYPE
  2
BORDER
 70
    64
  3
__ __ . __ __ . __ __ . __ __ . __ __ . __ __ .
 72
    65
 73
     6
 40
1.75
 49
0.5
 49
-0.25
 49
0.5
 49
-0.25
 49
0.0
 49
-0.25
  0
ENDTAB
  0
TABLE
  2
LAYER
 70
    16
  0
LAYER
  2
CSLAYER1
 70
    64
 62
     7
  6
CONTINUOUS
  0
LAYER
  2
CSLAYER2
 70
    64
 62
     7
  6
CONTINUOUS
  0
LAYER
  2
CSLAYER3
 70
    64
 62
     7
  6
CONTINUOUS
  0
LAYER
  2
CSLAYER4
 70
    64
 62
     7
  6
CONTINUOUS
  0
LAYER
  2
CSLAYER5
 70
    64
 62
     7
  6
CONTINUOUS
  0
LAYER
  2
CSLAYER6
 70
    64
 62
     7
  6
CONTINUOUS
  0
LAYER
  2
CSLAYER7
 70
    64
 62
     7
  6
CONTINUOUS
  0
LAYER
  2
CSLAYER8
 70
    64
 62
     7
  6
CONTINUOUS
  0
LAYER
  2
CSLAYER9
 70
    64
 62
     7
  6
CONTINUOUS
  0
LAYER
  2
CSLAYER10
 70
    64
 62
     7
  6
CONTINUOUS
  0
LAYER
  2
CSLAYER11
 70
    64
 62
     7
  6
CONTINUOUS
  0
LAYER
  2
CSLAYER12
 70
    64
 62
     7
  6
CONTINUOUS
  0
LAYER
  2
CSLAYER13
 70
    64
 62
     7
  6
CONTINUOUS
  0
LAYER
  2
CSLAYER14
 70
    64
 62
     7
  6
CONTINUOUS
  0
LAYER
  2
CSLAYER15
 70
    64
 62
     7
  6
CONTINUOUS
  0
LAYER
  2
CSLAYER16
 70
    64
 62
     7
  6
CONTINUOUS
  0
ENDTAB
  0
TABLE
  2
STYLE
 70
     1
  0
STYLE
  2
SX_FONT
 70
     0
 40
1.0
 41
1.0
 50
0.0
 71
     0
 42
1.0
  3
monotxt
  4
bigfont
  0
ENDTAB
  0
TABLE
  2
VIEW
 70
     0
  0
ENDTAB
  0
ENDSEC
  0
SECTION
  2
BLOCKS
  0
BLOCK
  8
CSLAYER1
  2
*D0000
 70
    65
 10
0.0
 20
0.0
 30
0.0
  0
LINE
  8
CSLAYER1
  6
CONTINUOUS
 62
     7
 10
54.466899
 20
186.139712
 11
54.466899
 21
191.228618
  0
LINE
  8
CSLAYER1
  6
CONTINUOUS
 62
     7
 10
144.466899
 20
186.139712
 11
144.466899
 21
191.228618
  0
LINE
  8
CSLAYER1
  6
CONTINUOUS
 62
     7
 10
54.466899
 20
190.228618
 11
144.466899
 21
190.228618
  0
LINE
  8
CSLAYER1
  6
CONTINUOUS
 62
     7
 10
54.466899
 20
190.228618
 11
58.330602
 21
191.263894
  0
LINE
  8
CSLAYER1
  6
CONTINUOUS
 62
     7
 10
54.466899
 20
190.228618
 11
58.330602
 21
189.193341
  0
LINE
  8
CSLAYER1
  6
CONTINUOUS
 62
     7
 10
144.466899
 20
190.228618
 11
140.603196
 21
191.263894
  0
LINE
  8
CSLAYER1
  6
CONTINUOUS
 62
     7
 10
144.466899
 20
190.228618
 11
140.603196
 21
189.193341
  0
TEXT
  8
CSLAYER1
 62
     7
 10
96.466896
 20
191.228622
 40
4.000000
 41
0.900000
  1
90
 50
0.000000
 51
0.000000
  7
SX_FONT
 72
     5
 11
102.466896
 21
191.228622
  0
ENDBLK
  8
0
  0
BLOCK
  8
CSLAYER1
  2
*D0001
 70
    65
 10
0.0
 20
0.0
 30
0.0
  0
LINE
  8
CSLAYER1
  6
CONTINUOUS
 62
     7
 10
150.466899
 20
159.139712
 11
156.225839
 21
159.139712
  0
LINE
  8
CSLAYER1
  6
CONTINUOUS
 62
     7
 10
150.466899
 20
180.139712
 11
156.225839
 21
180.139712
  0
LINE
  8
CSLAYER1
  6
CONTINUOUS
 62
     7
 10
155.225839
 20
159.139712
 11
155.225839
 21
180.139712
  0
LINE
  8
CSLAYER1
  6
CONTINUOUS
 62
     7
 10
155.225839
 20
159.139712
 11
154.190563
 21
163.003415
  0
LINE
  8
CSLAYER1
  6
CONTINUOUS
 62
     7
 10
155.225839
 20
159.139712
 11
156.261115
 21
163.003415
  0
LINE
  8
CSLAYER1
  6
CONTINUOUS
 62
     7
 10
155.225839
 20
180.139712
 11
154.190563
 21
176.276009
  0
LINE
  8
CSLAYER1
  6
CONTINUOUS
 62
     7
 10
155.225839
 20
180.139712
 11
156.261115
 21
176.276009
  0
TEXT
  8
CSLAYER1
 62
     7
 10
160.700989
 20
166.149323
 40
4.000000
 41
0.900000
  1
21
 50
90.000000
 51
0.000000
  7
SX_FONT
 72
     5
 11
160.700989
 21
172.149323
  0
ENDBLK
  8
0
  0
BLOCK
  8
CSLAYER3
  2
BLKF0000
 70
   64
 10
0.0
 20
0.0
 30
0.0
  0
LINE
  8
CSLAYER3
  6
CONTINUOUS
 62
     7
 10
65.466899
 20
176.139712
 11
65.466899
 21
173.139712
  0
LINE
  8
CSLAYER3
  6
CONTINUOUS
 62
     7
 10
65.466899
 20
173.139712
 11
62.466899
 21
173.139712
  0
LINE
  8
CSLAYER3
  6
CONTINUOUS
 62
     7
 10
62.466899
 20
173.139712
 11
62.466902
 21
176.139712
  0
ENDBLK
  8
0
  0
BLOCK
  8
CSLAYER3
  2
BLKF0001
 70
   64
 10
0.0
 20
0.0
 30
0.0
  0
LINE
  8
CSLAYER3
  6
CONTINUOUS
 62
     7
 10
133.466899
 20
176.139712
 11
133.466899
 21
173.139712
  0
LINE
  8
CSLAYER3
  6
CONTINUOUS
 62
     7
 10
133.466899
 20
173.139712
 11
136.466899
 21
173.139712
  0
LINE
  8
CSLAYER3
  6
CONTINUOUS
 62
     7
 10
136.466899
 20
173.139712
 11
136.466897
 21
176.139712
  0
ENDBLK
  8
0
  0
ENDSEC
  0
SECTION
  2
ENTITIES
  0
ARC
  8
CSLAYER3
  6
CONTINUOUS
 62
     7
 10
118.466899
 20
150.932777
 40
29.332398
 50
59.244210
 51
120.755790
  0
LINE
  8
CSLAYER3
  6
CONTINUOUS
 62
     7
 10
54.466899
 20
159.139712
 11
144.466899
 21
159.139712
  0
ARC
  8
CSLAYER3
  6
CONTINUOUS
 62
     7
 10
80.466899
 20
150.932777
 40
29.332398
 50
59.244210
 51
120.755790
  0
LINE
  8
CSLAYER3
  6
CONTINUOUS
 62
     7
 10
54.466899
 20
159.139712
 11
54.466899
 21
176.139712
  0
LINE
  8
CSLAYER3
  6
CONTINUOUS
 62
     7
 10
62.466899
 20
176.139712
 11
54.466899
 21
176.139712
  0
INSERT
  8
CSLAYER3
  2
BLKF0000
 10
0.0
 20
0.0
 30
0.0
  0
LINE
  8
CSLAYER3
  6
CONTINUOUS
 62
     7
 10
95.466899
 20
172.139712
 11
103.466899
 21
172.139712
  0
LINE
  8
CSLAYER3
  6
CONTINUOUS
 62
     7
 10
95.466899
 20
172.139712
 11
95.466899
 21
176.139712
  0
LINE
  8
CSLAYER3
  6
CONTINUOUS
 62
     7
 10
103.466899
 20
172.139712
 11
103.466899
 21
176.139712
  0
LINE
  8
CSLAYER3
  6
CONTINUOUS
 62
     7
 10
144.466899
 20
176.139712
 11
144.466899
 21
159.139712
  0
LINE
  8
CSLAYER3
  6
CONTINUOUS
 62
     7
 10
136.466899
 20
176.139712
 11
144.466899
 21
176.139712
  0
INSERT
  8
CSLAYER3
  2
BLKF0001
 10
0.0
 20
0.0
 30
0.0
  0
TEXT
  8
CSLAYER1
 62
     7
 10
54.147568
 20
100.945381
 40
8.000000
 41
0.787500
  1
FM-2019
 50
0.000000
 51
0.000000
  7
SX_FONT
 72
     5
 11
96.147568
 21
100.945381
  0
DIMENSION
  8
CSLAYER1
 62
     7
  2
*D0000
 10
144.466899
 20
190.228618
 11
99.466896
 21
191.228622
 13
54.466899
 23
185.139712
 14
144.466899
 24
185.139712
 70
1
  0
DIMENSION
  8
CSLAYER1
 62
     7
  2
*D0001
 10
155.225839
 20
180.139712
 11
160.700989
 21
169.149323
 13
149.466899
 23
159.139712
 14
149.466899
 24
180.139712
 50
90.000000
 70
1
  0
TEXT
  8
CSLAYER1
 62
     7
 10
111.084320
 20
100.529724
 40
8.000000
 41
0.803571
  1
90x21
 50
0.000000
 51
0.000000
  7
SX_FONT
 72
     5
 11
141.084320
 21
100.529724
  0
TEXT
  8
CSLAYER1
 62
     7
 10
53.549437
 20
79.863181
 40
4.960742
 41
0.729057
  1
ホ%%dケットカタロク゛ Vol. 1 P17
 50
0.000000
 51
0.000000
  7
SX_FONT
 72
     5
 11
128.293794
 21
79.863181
  0
TEXT
  8
CSLAYER1
 62
     7
 10
53.647583
 20
88.925781
 40
5.000000
 41
0.612766
  1
カタログ Vol. 1  P44
 50
0.000000
 51
0.000000
  7
SX_FONT
 72
     5
 11
101.647583
 21
88.925781
  0
ENDSEC
  0
EOF
