  0
SECTION
  2
HEADER
  9
$ACADVER
  1
AC1006
  9
$INSBASE
 10
66.965055
 20
153.953774
 30
0.0
  9
$EXTMIN
 10
66.965055
 20
153.953774
  9
$EXTMAX
 10
276.965055
 20
450.953774
  9
$LIMMIN
 10
66.965055
 20
153.953774
  9
$LIMMAX
 10
276.965055
 20
450.953774
  9
$VIEWCTR
 10
171.965055
 20
302.453774
  9
$VIEWSIZE
 40
297.000000
  9
$SNAPMODE
 70
     0
  9
$SNAPUNIT
 10
1.0
 20
1.0
  9
$SNAPBASE
 10
0.0
 20
0.0
  9
$SNAPANG
 50
0.0
  9
$SNAPSTYLE
 70
     0
  9
$SNAPISOPAIR
 70
     0
  9
$GRIDMODE
 70
     0
  9
$GRIDUNIT
 10
0.0
 20
0.0
  9
$ORTHOMODE
 70
     0
  9
$REGENMODE
 70
     1
  9
$FILLMODE
 70
     1
  9
$QTEXTMODE
 70
     0
  9
$DRAGMODE
 70
     2
  9
$LTSCALE
 40
15.000000
  9
$OSMODE
 70
     0
  9
$ATTMODE
 70
     1
  9
$TEXTSIZE
 40
0.2
  9
$TRACEWID
 40
0.05
  9
$TEXTSTYLE
  7
STANDARD
  9
$CLAYER
  8
CSLAYER3
  9
$CELTYPE
  6
BYLAYER
  9
$CECOLOR
 62
   256
  9
$DIMSCALE
 40
1.0
  9
$DIMASZ
 40
0.18
  9
$DIMEXO
 40
0.0625
  9
$DIMDLI
 40
0.38
  9
$DIMRND
 40
0.0
  9
$DIMDLE
 40
0.0
  9
$DIMEXE
 40
0.18
  9
$DIMTP
 40
0.0
  9
$DIMTM
 40
0.0
  9
$DIMTXT
 40
0.18
  9
$DIMCEN
 40
0.09
  9
$DIMTSZ
 40
0.0
  9
$DIMTOL
 70
     0
  9
$DIMLIM
 70
     0
  9
$DIMTIH
 70
     1
  9
$DIMTOH
 70
     1
  9
$DIMSE1
 70
     0
  9
$DIMSE2
 70
     0
  9
$DIMTAD
 70
     0
  9
$DIMZIN
 70
     0
  9
$DIMBLK
  1

  9
$LUNITS
 70
     2
  9
$LUPREC
 70
     4
  9
$AXISMODE
 70
     0
  9
$AXISUNIT
 10
0.0
 20
0.0
  9
$SKETCHINC
 40
0.1
  9
$FILLETRAD
 40
0.0
  9
$AUNITS
 70
     0
  9
$AUPREC
 70
     0
  9
$MENU
  1
ACAD
  9
$ELEVATION
 40
0.0
  9
$THICKNESS
 40
0.0
  9
$VIEWDIR
 10
0.0
 20
0.0
 30
1.0
  9
$LIMCHECK
 70
     0
  9
$BLIPMODE
 70
     1
  9
$CHAMFERA
 40
0.0
  9
$CHAMFERB
 40
0.0
  9
$FASTZOOM
 70
     1
  9
$SKPOLY
 70
     0
  9
$TDCREATE
 40
0.000000
  9
$TDUPDATE
 40
0.000000
  9
$TDINDWG
 40
0.0
  9
$TDUSRTIMER
 40
0.0
  9
$USRTIMER
 70
     1
  9
$ANGBASE
 50
0.0
  9
$ANGDIR
 70
     0
  9
$PDMODE
 70
     0
  9
$PDSIZE
 40
0.0
  9
$PLINEWID
 40
0.0
  9
$COORDS
 70
     0
  9
$USERI1
 70
     0
  9
$USERI2
 70
     0
  9
$USERI3
 70
     0
  9
$USERI4
 70
     0
  9
$USERI5
 70
     0
  9
$USERR1
 40
0.0
  9
$USERR2
 40
0.0
  9
$USERR3
 40
0.0
  9
$USERR4
 40
0.0
  9
$USERR5
 40
0.0
  0
ENDSEC
  0
SECTION
  2
TABLES
  0
TABLE
  2
LTYPE
 70
     9
  0
LTYPE
  2
CONTINUOUS
 70
    64
  3
Solid line
 72
    65
 73
     0
 40
0.0
  0
LTYPE
  2
DASHED
 70
    64
  3
__ __ __ __ __ __ __ __ __ __ __ __ __ __ __
 72
    65
 73
     2
 40
0.75
 49
0.5
 49
-0.25
  0
LTYPE
  2
HIDDEN
 70
    64
  3
_ _ _ _ _ _ _ _ _ _ _ _ _ _ _ _ _ _ _ _ _ _ _
 72
    65
 73
     2
 40
0.375
 49
0.25
 49
-0.125
  0
LTYPE
  2
DOT
 70
    64
  3
...............................................
 72
    65
 73
     2
 40
0.25
 49
0.0
 49
-0.25
  0
LTYPE
  2
DASHDOT
 70
    64
  3
__ . __ . __ . __ . __ . __ . __ . __ . __ . __
 72
    65
 73
     4
 40
1.0
 49
0.5
 49
-0.25
 49
0.0
 49
-0.25
  0
LTYPE
  2
DIVIDE
 70
    64
  3
__ . . __ . . __ . . __ . . __ . . __ . . __
 72
    65
 73
     6
 40
1.25
 49
0.5
 49
-0.25
 49
0.0
 49
-0.25
 49
0.0
 49
-0.25
  0
LTYPE
  2
CENTER
 70
    64
  3
____ _ ____ _ ____ _ ____ _ ____ _ ____ _ ____ 
 72
    65
 73
     4
 40
2.0
 49
1.25
 49
-0.25
 49
0.25
 49
-0.25
  0
LTYPE
  2
PHANTOM
 70
    64
  3
______  __  __  ______  __  __  ______  __  __ 
 72
    65
 73
     6
 40
2.5
 49
1.25
 49
-0.25
 49
0.25
 49
-0.25
 49
0.25
 49
-0.25
  0
LTYPE
  2
BORDER
 70
    64
  3
__ __ . __ __ . __ __ . __ __ . __ __ . __ __ .
 72
    65
 73
     6
 40
1.75
 49
0.5
 49
-0.25
 49
0.5
 49
-0.25
 49
0.0
 49
-0.25
  0
ENDTAB
  0
TABLE
  2
LAYER
 70
    16
  0
LAYER
  2
CSLAYER1
 70
    64
 62
     7
  6
CONTINUOUS
  0
LAYER
  2
CSLAYER2
 70
    64
 62
     7
  6
CONTINUOUS
  0
LAYER
  2
CSLAYER3
 70
    64
 62
     7
  6
CONTINUOUS
  0
LAYER
  2
CSLAYER4
 70
    64
 62
     7
  6
CONTINUOUS
  0
LAYER
  2
CSLAYER5
 70
    64
 62
     7
  6
CONTINUOUS
  0
LAYER
  2
CSLAYER6
 70
    64
 62
     7
  6
CONTINUOUS
  0
LAYER
  2
CSLAYER7
 70
    64
 62
     7
  6
CONTINUOUS
  0
LAYER
  2
CSLAYER8
 70
    64
 62
     7
  6
CONTINUOUS
  0
LAYER
  2
CSLAYER9
 70
    64
 62
     7
  6
CONTINUOUS
  0
LAYER
  2
CSLAYER10
 70
    64
 62
     7
  6
CONTINUOUS
  0
LAYER
  2
CSLAYER11
 70
    64
 62
     7
  6
CONTINUOUS
  0
LAYER
  2
CSLAYER12
 70
    64
 62
     7
  6
CONTINUOUS
  0
LAYER
  2
CSLAYER13
 70
    64
 62
     7
  6
CONTINUOUS
  0
LAYER
  2
CSLAYER14
 70
    64
 62
     7
  6
CONTINUOUS
  0
LAYER
  2
CSLAYER15
 70
    64
 62
     7
  6
CONTINUOUS
  0
LAYER
  2
CSLAYER16
 70
    64
 62
     7
  6
CONTINUOUS
  0
ENDTAB
  0
TABLE
  2
STYLE
 70
     1
  0
STYLE
  2
SX_FONT
 70
     0
 40
1.0
 41
1.0
 50
0.0
 71
     0
 42
1.0
  3
monotxt
  4
bigfont
  0
ENDTAB
  0
TABLE
  2
VIEW
 70
     0
  0
ENDTAB
  0
ENDSEC
  0
SECTION
  2
BLOCKS
  0
BLOCK
  8
CSLAYER1
  2
*D0000
 70
    65
 10
0.0
 20
0.0
 30
0.0
  0
LINE
  8
CSLAYER1
  6
CONTINUOUS
 62
     7
 10
66.953827
 20
172.374087
 11
66.953827
 21
177.427856
  0
LINE
  8
CSLAYER1
  6
CONTINUOUS
 62
     7
 10
126.953827
 20
172.374087
 11
126.953827
 21
177.427856
  0
LINE
  8
CSLAYER1
  6
CONTINUOUS
 62
     7
 10
66.953827
 20
176.427856
 11
126.953827
 21
176.427856
  0
LINE
  8
CSLAYER1
  6
CONTINUOUS
 62
     7
 10
66.953827
 20
176.427856
 11
70.817530
 21
177.463132
  0
LINE
  8
CSLAYER1
  6
CONTINUOUS
 62
     7
 10
66.953827
 20
176.427856
 11
70.817530
 21
175.392580
  0
LINE
  8
CSLAYER1
  6
CONTINUOUS
 62
     7
 10
126.953827
 20
176.427856
 11
123.090123
 21
177.463132
  0
LINE
  8
CSLAYER1
  6
CONTINUOUS
 62
     7
 10
126.953827
 20
176.427856
 11
123.090123
 21
175.392580
  0
TEXT
  8
CSLAYER1
 62
     7
 10
93.953827
 20
177.427856
 40
4.000000
 41
0.900000
  1
60
 50
0.000000
 51
0.000000
  7
SX_FONT
 72
     5
 11
99.953827
 21
177.427856
  0
ENDBLK
  8
0
  0
BLOCK
  8
CSLAYER1
  2
*D0001
 70
    65
 10
0.0
 20
0.0
 30
0.0
  0
LINE
  8
CSLAYER1
  6
CONTINUOUS
 62
     7
 10
132.953827
 20
154.374087
 11
137.921595
 21
154.374087
  0
LINE
  8
CSLAYER1
  6
CONTINUOUS
 62
     7
 10
132.953827
 20
166.374087
 11
137.921595
 21
166.374087
  0
LINE
  8
CSLAYER1
  6
CONTINUOUS
 62
     7
 10
136.921595
 20
154.374087
 11
136.921595
 21
166.374087
  0
LINE
  8
CSLAYER1
  6
CONTINUOUS
 62
     7
 10
136.921595
 20
148.374087
 11
136.921595
 21
154.374087
  0
LINE
  8
CSLAYER1
  6
CONTINUOUS
 62
     7
 10
136.921595
 20
154.374087
 11
135.886318
 21
150.510384
  0
LINE
  8
CSLAYER1
  6
CONTINUOUS
 62
     7
 10
136.921595
 20
154.374087
 11
137.956871
 21
150.510384
  0
LINE
  8
CSLAYER1
  6
CONTINUOUS
 62
     7
 10
136.921595
 20
166.374087
 11
136.921595
 21
172.374087
  0
LINE
  8
CSLAYER1
  6
CONTINUOUS
 62
     7
 10
136.921595
 20
166.374087
 11
135.886318
 21
170.237790
  0
LINE
  8
CSLAYER1
  6
CONTINUOUS
 62
     7
 10
136.921595
 20
166.374087
 11
137.956871
 21
170.237790
  0
TEXT
  8
CSLAYER1
 62
     7
 10
141.921600
 20
157.374084
 40
4.000000
 41
0.900000
  1
12
 50
90.000000
 51
0.000000
  7
SX_FONT
 72
     5
 11
141.921600
 21
163.374084
  0
ENDBLK
  8
0
  0
ENDSEC
  0
SECTION
  2
ENTITIES
  0
ARC
  8
CSLAYER2
  6
CONTINUOUS
 62
     7
 10
74.403316
 20
158.874087
 40
2.500000
 50
90.000000
 51
168.463041
  0
LINE
  8
CSLAYER2
  6
CONTINUOUS
 62
     7
 10
74.403316
 20
161.374087
 11
77.903316
 21
161.374087
  0
LINE
  8
CSLAYER2
  6
CONTINUOUS
 62
     7
 10
84.713456
 20
164.874087
 11
79.415123
 21
161.782863
  0
ARC
  8
CSLAYER2
  6
CONTINUOUS
 62
     7
 10
77.903316
 20
164.374087
 40
3.000000
 50
270.000000
 51
300.260708
  0
ARC
  8
CSLAYER2
  6
CONTINUOUS
 62
     7
 10
87.953827
 20
162.124087
 40
4.250000
 50
19.749923
 51
90.000000
  0
ARC
  8
CSLAYER2
  6
CONTINUOUS
 62
     7
 10
87.953827
 20
162.124087
 40
4.250000
 50
90.000000
 51
139.679785
  0
ARC
  8
CSLAYER2
  6
CONTINUOUS
 62
     7
 10
119.504337
 20
158.874087
 40
2.500000
 50
11.536959
 51
90.000000
  0
LINE
  8
CSLAYER2
  6
CONTINUOUS
 62
     7
 10
119.504337
 20
161.374087
 11
116.004337
 21
161.374087
  0
LINE
  8
CSLAYER2
  6
CONTINUOUS
 62
     7
 10
109.194197
 20
164.874087
 11
114.492531
 21
161.782863
  0
ARC
  8
CSLAYER2
  6
CONTINUOUS
 62
     7
 10
116.004337
 20
164.374087
 40
3.000000
 50
239.739292
 51
270.000000
  0
ARC
  8
CSLAYER2
  6
CONTINUOUS
 62
     7
 10
105.953827
 20
162.124087
 40
4.250000
 50
90.000000
 51
160.250077
  0
ARC
  8
CSLAYER2
  6
CONTINUOUS
 62
     7
 10
105.953827
 20
162.124087
 40
4.250000
 50
40.320215
 51
90.000000
  0
LINE
  8
CSLAYER2
  6
CONTINUOUS
 62
     7
 10
91.953827
 20
163.560228
 11
91.953827
 21
166.374087
  0
LINE
  8
CSLAYER2
  6
CONTINUOUS
 62
     7
 10
91.953827
 20
166.374087
 11
101.953827
 21
166.374087
  0
LINE
  8
CSLAYER2
  6
CONTINUOUS
 62
     7
 10
101.953827
 20
166.374087
 11
101.953827
 21
163.560228
  0
LINE
  8
CSLAYER2
  6
CONTINUOUS
 62
     7
 10
121.953827
 20
159.374087
 11
126.953827
 21
159.374087
  0
LINE
  8
CSLAYER2
  6
CONTINUOUS
 62
     7
 10
126.953827
 20
159.374087
 11
126.953827
 21
154.374087
  0
LINE
  8
CSLAYER2
  6
CONTINUOUS
 62
     7
 10
126.953827
 20
154.374087
 11
66.953827
 21
154.374087
  0
LINE
  8
CSLAYER2
  6
CONTINUOUS
 62
     7
 10
66.953827
 20
154.374087
 11
66.953827
 21
159.374087
  0
LINE
  8
CSLAYER2
  6
CONTINUOUS
 62
     7
 10
66.953827
 20
159.374087
 11
71.953827
 21
159.374087
  0
TEXT
  8
CSLAYER1
 62
     7
 10
66.949661
 20
95.567696
 40
8.000000
 41
0.787500
  1
FM-2017
 50
0.000000
 51
0.000000
  7
SX_FONT
 72
     5
 11
108.949661
 21
95.567696
  0
DIMENSION
  8
CSLAYER1
 62
     7
  2
*D0000
 10
126.953827
 20
176.427856
 11
96.953827
 21
177.427856
 13
66.953827
 23
171.374087
 14
126.953827
 24
171.374087
 70
1
  0
DIMENSION
  8
CSLAYER1
 62
     7
  2
*D0001
 10
136.921595
 20
166.374087
 11
137.921600
 21
160.374084
 13
131.953827
 23
154.374087
 14
131.953827
 24
166.374087
 50
90.000000
 70
1
  0
TEXT
  8
CSLAYER1
 62
     7
 10
123.919373
 20
94.888321
 40
8.000000
 41
0.803571
  1
60x12
 50
0.000000
 51
0.000000
  7
SX_FONT
 72
     5
 11
153.919373
 21
94.888321
  0
TEXT
  8
CSLAYER1
 62
     7
 10
67.363379
 20
71.821402
 40
4.960742
 41
0.729057
  1
ホ%%dケットカタロク゛ Vol. 1 P17
 50
0.000000
 51
0.000000
  7
SX_FONT
 72
     5
 11
142.107736
 21
71.821402
  0
TEXT
  8
CSLAYER1
 62
     7
 10
67.848907
 20
82.620201
 40
5.000000
 41
0.612766
  1
カタログ Vol. 1  P44
 50
0.000000
 51
0.000000
  7
SX_FONT
 72
     5
 11
115.848907
 21
82.620201
  0
ENDSEC
  0
EOF
