  0
SECTION
  2
HEADER
  9
$ACADVER
  1
AC1006
  9
$INSBASE
 10
0.000000
 20
0.000000
 30
0.0
  9
$EXTMIN
 10
0.000000
 20
0.000000
  9
$EXTMAX
 10
210.000000
 20
297.000000
  9
$LIMMIN
 10
0.000000
 20
0.000000
  9
$LIMMAX
 10
210.000000
 20
297.000000
  9
$VIEWCTR
 10
105.000000
 20
148.500000
  9
$VIEWSIZE
 40
297.000000
  9
$SNAPMODE
 70
     0
  9
$SNAPUNIT
 10
1.0
 20
1.0
  9
$SNAPBASE
 10
0.0
 20
0.0
  9
$SNAPANG
 50
0.0
  9
$SNAPSTYLE
 70
     0
  9
$SNAPISOPAIR
 70
     0
  9
$GRIDMODE
 70
     0
  9
$GRIDUNIT
 10
0.0
 20
0.0
  9
$ORTHOMODE
 70
     0
  9
$REGENMODE
 70
     1
  9
$FILLMODE
 70
     1
  9
$QTEXTMODE
 70
     0
  9
$DRAGMODE
 70
     2
  9
$LTSCALE
 40
15.000000
  9
$OSMODE
 70
     0
  9
$ATTMODE
 70
     1
  9
$TEXTSIZE
 40
0.2
  9
$TRACEWID
 40
0.05
  9
$TEXTSTYLE
  7
STANDARD
  9
$CLAYER
  8
CSLAYER3
  9
$CELTYPE
  6
BYLAYER
  9
$CECOLOR
 62
   256
  9
$DIMSCALE
 40
1.0
  9
$DIMASZ
 40
0.18
  9
$DIMEXO
 40
0.0625
  9
$DIMDLI
 40
0.38
  9
$DIMRND
 40
0.0
  9
$DIMDLE
 40
0.0
  9
$DIMEXE
 40
0.18
  9
$DIMTP
 40
0.0
  9
$DIMTM
 40
0.0
  9
$DIMTXT
 40
0.18
  9
$DIMCEN
 40
0.09
  9
$DIMTSZ
 40
0.0
  9
$DIMTOL
 70
     0
  9
$DIMLIM
 70
     0
  9
$DIMTIH
 70
     1
  9
$DIMTOH
 70
     1
  9
$DIMSE1
 70
     0
  9
$DIMSE2
 70
     0
  9
$DIMTAD
 70
     0
  9
$DIMZIN
 70
     0
  9
$DIMBLK
  1

  9
$LUNITS
 70
     2
  9
$LUPREC
 70
     4
  9
$AXISMODE
 70
     0
  9
$AXISUNIT
 10
0.0
 20
0.0
  9
$SKETCHINC
 40
0.1
  9
$FILLETRAD
 40
0.0
  9
$AUNITS
 70
     0
  9
$AUPREC
 70
     0
  9
$MENU
  1
ACAD
  9
$ELEVATION
 40
0.0
  9
$THICKNESS
 40
0.0
  9
$VIEWDIR
 10
0.0
 20
0.0
 30
1.0
  9
$LIMCHECK
 70
     0
  9
$BLIPMODE
 70
     1
  9
$CHAMFERA
 40
0.0
  9
$CHAMFERB
 40
0.0
  9
$FASTZOOM
 70
     1
  9
$SKPOLY
 70
     0
  9
$TDCREATE
 40
0.000000
  9
$TDUPDATE
 40
0.000000
  9
$TDINDWG
 40
0.0
  9
$TDUSRTIMER
 40
0.0
  9
$USRTIMER
 70
     1
  9
$ANGBASE
 50
0.0
  9
$ANGDIR
 70
     0
  9
$PDMODE
 70
     0
  9
$PDSIZE
 40
0.0
  9
$PLINEWID
 40
0.0
  9
$COORDS
 70
     0
  9
$USERI1
 70
     0
  9
$USERI2
 70
     0
  9
$USERI3
 70
     0
  9
$USERI4
 70
     0
  9
$USERI5
 70
     0
  9
$USERR1
 40
0.0
  9
$USERR2
 40
0.0
  9
$USERR3
 40
0.0
  9
$USERR4
 40
0.0
  9
$USERR5
 40
0.0
  0
ENDSEC
  0
SECTION
  2
TABLES
  0
TABLE
  2
LTYPE
 70
     9
  0
LTYPE
  2
CONTINUOUS
 70
    64
  3
Solid line
 72
    65
 73
     0
 40
0.0
  0
LTYPE
  2
DASHED
 70
    64
  3
__ __ __ __ __ __ __ __ __ __ __ __ __ __ __
 72
    65
 73
     2
 40
0.75
 49
0.5
 49
-0.25
  0
LTYPE
  2
HIDDEN
 70
    64
  3
_ _ _ _ _ _ _ _ _ _ _ _ _ _ _ _ _ _ _ _ _ _ _
 72
    65
 73
     2
 40
0.375
 49
0.25
 49
-0.125
  0
LTYPE
  2
DOT
 70
    64
  3
...............................................
 72
    65
 73
     2
 40
0.25
 49
0.0
 49
-0.25
  0
LTYPE
  2
DASHDOT
 70
    64
  3
__ . __ . __ . __ . __ . __ . __ . __ . __ . __
 72
    65
 73
     4
 40
1.0
 49
0.5
 49
-0.25
 49
0.0
 49
-0.25
  0
LTYPE
  2
DIVIDE
 70
    64
  3
__ . . __ . . __ . . __ . . __ . . __ . . __
 72
    65
 73
     6
 40
1.25
 49
0.5
 49
-0.25
 49
0.0
 49
-0.25
 49
0.0
 49
-0.25
  0
LTYPE
  2
CENTER
 70
    64
  3
____ _ ____ _ ____ _ ____ _ ____ _ ____ _ ____ 
 72
    65
 73
     4
 40
2.0
 49
1.25
 49
-0.25
 49
0.25
 49
-0.25
  0
LTYPE
  2
PHANTOM
 70
    64
  3
______  __  __  ______  __  __  ______  __  __ 
 72
    65
 73
     6
 40
2.5
 49
1.25
 49
-0.25
 49
0.25
 49
-0.25
 49
0.25
 49
-0.25
  0
LTYPE
  2
BORDER
 70
    64
  3
__ __ . __ __ . __ __ . __ __ . __ __ . __ __ .
 72
    65
 73
     6
 40
1.75
 49
0.5
 49
-0.25
 49
0.5
 49
-0.25
 49
0.0
 49
-0.25
  0
ENDTAB
  0
TABLE
  2
LAYER
 70
    16
  0
LAYER
  2
CSLAYER1
 70
    64
 62
     7
  6
CONTINUOUS
  0
LAYER
  2
CSLAYER2
 70
    64
 62
     7
  6
CONTINUOUS
  0
LAYER
  2
CSLAYER3
 70
    64
 62
     7
  6
CONTINUOUS
  0
LAYER
  2
CSLAYER4
 70
    64
 62
     7
  6
CONTINUOUS
  0
LAYER
  2
CSLAYER5
 70
    64
 62
     7
  6
CONTINUOUS
  0
LAYER
  2
CSLAYER6
 70
    64
 62
     7
  6
CONTINUOUS
  0
LAYER
  2
CSLAYER7
 70
    64
 62
     7
  6
CONTINUOUS
  0
LAYER
  2
CSLAYER8
 70
    64
 62
     7
  6
CONTINUOUS
  0
LAYER
  2
CSLAYER9
 70
    64
 62
     7
  6
CONTINUOUS
  0
LAYER
  2
CSLAYER10
 70
    64
 62
     7
  6
CONTINUOUS
  0
LAYER
  2
CSLAYER11
 70
    64
 62
     7
  6
CONTINUOUS
  0
LAYER
  2
CSLAYER12
 70
    64
 62
     7
  6
CONTINUOUS
  0
LAYER
  2
CSLAYER13
 70
    64
 62
     7
  6
CONTINUOUS
  0
LAYER
  2
CSLAYER14
 70
    64
 62
     7
  6
CONTINUOUS
  0
LAYER
  2
CSLAYER15
 70
    64
 62
     7
  6
CONTINUOUS
  0
LAYER
  2
CSLAYER16
 70
    64
 62
     7
  6
CONTINUOUS
  0
ENDTAB
  0
TABLE
  2
STYLE
 70
     1
  0
STYLE
  2
SX_FONT
 70
     0
 40
1.0
 41
1.0
 50
0.0
 71
     0
 42
1.0
  3
monotxt
  4
bigfont
  0
ENDTAB
  0
TABLE
  2
VIEW
 70
     0
  0
ENDTAB
  0
ENDSEC
  0
SECTION
  2
BLOCKS
  0
BLOCK
  8
CSLAYER1
  2
*D0000
 70
    65
 10
0.0
 20
0.0
 30
0.0
  0
LINE
  8
CSLAYER1
  6
CONTINUOUS
 62
     7
 10
115.780827
 20
151.906250
 11
120.799186
 21
151.906250
  0
LINE
  8
CSLAYER1
  6
CONTINUOUS
 62
     7
 10
115.780827
 20
161.906250
 11
120.799186
 21
161.906250
  0
LINE
  8
CSLAYER1
  6
CONTINUOUS
 62
     7
 10
119.799186
 20
151.906250
 11
119.799186
 21
161.906250
  0
LINE
  8
CSLAYER1
  6
CONTINUOUS
 62
     7
 10
119.799186
 20
145.906250
 11
119.799186
 21
151.906250
  0
LINE
  8
CSLAYER1
  6
CONTINUOUS
 62
     7
 10
119.799186
 20
151.906250
 11
118.763910
 21
148.042547
  0
LINE
  8
CSLAYER1
  6
CONTINUOUS
 62
     7
 10
119.799186
 20
151.906250
 11
120.834462
 21
148.042547
  0
LINE
  8
CSLAYER1
  6
CONTINUOUS
 62
     7
 10
119.799186
 20
161.906250
 11
119.799186
 21
167.906250
  0
LINE
  8
CSLAYER1
  6
CONTINUOUS
 62
     7
 10
119.799186
 20
161.906250
 11
118.763910
 21
165.769953
  0
LINE
  8
CSLAYER1
  6
CONTINUOUS
 62
     7
 10
119.799186
 20
161.906250
 11
120.834462
 21
165.769953
  0
TEXT
  8
CSLAYER1
 62
     7
 10
124.799187
 20
153.906250
 40
4.000000
 41
0.900000
  1
10
 50
90.000000
 51
0.000000
  7
SX_FONT
 72
     5
 11
124.799187
 21
159.906250
  0
ENDBLK
  8
0
  0
BLOCK
  8
CSLAYER1
  2
*D0001
 70
    65
 10
0.0
 20
0.0
 30
0.0
  0
LINE
  8
CSLAYER1
  6
CONTINUOUS
 62
     7
 10
85.780827
 20
167.906250
 11
85.780827
 21
172.942351
  0
LINE
  8
CSLAYER1
  6
CONTINUOUS
 62
     7
 10
109.780827
 20
167.906250
 11
109.780827
 21
172.942351
  0
LINE
  8
CSLAYER1
  6
CONTINUOUS
 62
     7
 10
85.780827
 20
171.942351
 11
109.780827
 21
171.942351
  0
LINE
  8
CSLAYER1
  6
CONTINUOUS
 62
     7
 10
85.780827
 20
171.942351
 11
89.644530
 21
172.977627
  0
LINE
  8
CSLAYER1
  6
CONTINUOUS
 62
     7
 10
85.780827
 20
171.942351
 11
89.644530
 21
170.907075
  0
LINE
  8
CSLAYER1
  6
CONTINUOUS
 62
     7
 10
109.780827
 20
171.942351
 11
105.917124
 21
172.977627
  0
LINE
  8
CSLAYER1
  6
CONTINUOUS
 62
     7
 10
109.780827
 20
171.942351
 11
105.917124
 21
170.907075
  0
TEXT
  8
CSLAYER1
 62
     7
 10
94.780830
 20
172.942352
 40
4.000000
 41
0.900000
  1
24
 50
0.000000
 51
0.000000
  7
SX_FONT
 72
     5
 11
100.780830
 21
172.942352
  0
ENDBLK
  8
0
  0
ENDSEC
  0
SECTION
  2
ENTITIES
  0
ARC
  8
CSLAYER2
  6
CONTINUOUS
 62
     7
 10
97.780827
 20
158.406250
 40
3.500000
 50
90.000000
 51
165.542804
  0
ARC
  8
CSLAYER2
  6
CONTINUOUS
 62
     7
 10
93.907489
 20
159.404877
 40
0.500000
 50
268.266272
 51
345.542804
  0
LINE
  8
CSLAYER2
  6
CONTINUOUS
 62
     7
 10
91.411778
 20
157.089061
 11
91.204784
 21
156.360001
  0
ARC
  8
CSLAYER2
  6
CONTINUOUS
 62
     7
 10
89.280827
 20
156.906250
 40
2.000000
 50
270.000000
 51
344.149733
  0
ARC
  8
CSLAYER2
  6
CONTINUOUS
 62
     7
 10
93.816725
 20
156.406250
 40
2.500000
 50
88.266272
 51
164.149733
  0
ARC
  8
CSLAYER2
  6
CONTINUOUS
 62
     7
 10
97.780827
 20
158.406250
 40
3.500000
 50
14.457196
 51
90.000000
  0
ARC
  8
CSLAYER2
  6
CONTINUOUS
 62
     7
 10
101.654165
 20
159.404877
 40
0.500000
 50
194.457196
 51
271.733728
  0
LINE
  8
CSLAYER2
  6
CONTINUOUS
 62
     7
 10
104.149875
 20
157.089061
 11
104.356869
 21
156.360001
  0
ARC
  8
CSLAYER2
  6
CONTINUOUS
 62
     7
 10
106.280827
 20
156.906250
 40
2.000000
 50
195.850267
 51
270.000000
  0
ARC
  8
CSLAYER2
  6
CONTINUOUS
 62
     7
 10
101.744929
 20
156.406250
 40
2.500000
 50
15.850267
 51
91.733728
  0
LINE
  8
CSLAYER2
  6
CONTINUOUS
 62
     7
 10
89.280827
 20
154.906250
 11
85.780827
 21
154.906250
  0
LINE
  8
CSLAYER2
  6
CONTINUOUS
 62
     7
 10
85.780827
 20
154.906250
 11
85.780827
 21
151.906250
  0
LINE
  8
CSLAYER2
  6
CONTINUOUS
 62
     7
 10
85.780827
 20
151.906250
 11
109.780827
 21
151.906250
  0
LINE
  8
CSLAYER2
  6
CONTINUOUS
 62
     7
 10
109.780827
 20
151.906250
 11
109.780827
 21
154.906250
  0
LINE
  8
CSLAYER2
  6
CONTINUOUS
 62
     7
 10
109.780827
 20
154.906250
 11
106.280827
 21
154.906250
  0
TEXT
  8
CSLAYER1
 62
     7
 10
85.995132
 20
91.282616
 40
10.000000
 41
0.630000
  1
FM-2011
 50
0.000000
 51
0.000000
  7
SX_FONT
 72
     5
 11
127.995132
 21
91.282616
  0
DIMENSION
  8
CSLAYER1
 62
     7
  2
*D0000
 10
119.799186
 20
161.906250
 11
120.799187
 21
156.906250
 13
114.780827
 23
151.906250
 14
114.780827
 24
161.906250
 50
90.000000
 70
1
  0
DIMENSION
  8
CSLAYER1
 62
     7
  2
*D0001
 10
109.780827
 20
171.942351
 11
97.780830
 21
172.942352
 13
85.780827
 23
166.906250
 14
109.780827
 24
166.906250
 70
1
  0
TEXT
  8
CSLAYER1
 62
     7
 10
137.380936
 20
91.233688
 40
10.000000
 41
0.642857
  1
24x10
 50
0.000000
 51
0.000000
  7
SX_FONT
 72
     5
 11
167.380936
 21
91.233688
  0
TEXT
  8
CSLAYER1
 62
     7
 10
86.807312
 20
80.210609
 40
5.000000
 41
0.612766
  1
カタログ Vol. 1  P43
 50
0.000000
 51
0.000000
  7
SX_FONT
 72
     5
 11
134.807312
 21
80.210609
  0
TEXT
  8
CSLAYER1
 62
     7
 10
86.981062
 20
70.573737
 40
4.960742
 41
0.729057
  1
ホ%%dケットカタロク゛ Vol. 1 P16
 50
0.000000
 51
0.000000
  7
SX_FONT
 72
     5
 11
161.725420
 21
70.573737
  0
ENDSEC
  0
EOF
