  0
SECTION
  2
HEADER
  9
$ACADVER
  1
AC1006
  9
$INSBASE
 10
74.385063
 20
182.400023
 30
0.0
  9
$EXTMIN
 10
74.385063
 20
182.400023
  9
$EXTMAX
 10
284.385063
 20
479.400023
  9
$LIMMIN
 10
74.385063
 20
182.400023
  9
$LIMMAX
 10
284.385063
 20
479.400023
  9
$VIEWCTR
 10
179.385063
 20
330.900023
  9
$VIEWSIZE
 40
297.000000
  9
$SNAPMODE
 70
     0
  9
$SNAPUNIT
 10
1.0
 20
1.0
  9
$SNAPBASE
 10
0.0
 20
0.0
  9
$SNAPANG
 50
0.0
  9
$SNAPSTYLE
 70
     0
  9
$SNAPISOPAIR
 70
     0
  9
$GRIDMODE
 70
     0
  9
$GRIDUNIT
 10
0.0
 20
0.0
  9
$ORTHOMODE
 70
     0
  9
$REGENMODE
 70
     1
  9
$FILLMODE
 70
     1
  9
$QTEXTMODE
 70
     0
  9
$DRAGMODE
 70
     2
  9
$LTSCALE
 40
15.000000
  9
$OSMODE
 70
     0
  9
$ATTMODE
 70
     1
  9
$TEXTSIZE
 40
0.2
  9
$TRACEWID
 40
0.05
  9
$TEXTSTYLE
  7
STANDARD
  9
$CLAYER
  8
CSLAYER3
  9
$CELTYPE
  6
BYLAYER
  9
$CECOLOR
 62
   256
  9
$DIMSCALE
 40
1.0
  9
$DIMASZ
 40
0.18
  9
$DIMEXO
 40
0.0625
  9
$DIMDLI
 40
0.38
  9
$DIMRND
 40
0.0
  9
$DIMDLE
 40
0.0
  9
$DIMEXE
 40
0.18
  9
$DIMTP
 40
0.0
  9
$DIMTM
 40
0.0
  9
$DIMTXT
 40
0.18
  9
$DIMCEN
 40
0.09
  9
$DIMTSZ
 40
0.0
  9
$DIMTOL
 70
     0
  9
$DIMLIM
 70
     0
  9
$DIMTIH
 70
     1
  9
$DIMTOH
 70
     1
  9
$DIMSE1
 70
     0
  9
$DIMSE2
 70
     0
  9
$DIMTAD
 70
     0
  9
$DIMZIN
 70
     0
  9
$DIMBLK
  1

  9
$LUNITS
 70
     2
  9
$LUPREC
 70
     4
  9
$AXISMODE
 70
     0
  9
$AXISUNIT
 10
0.0
 20
0.0
  9
$SKETCHINC
 40
0.1
  9
$FILLETRAD
 40
0.0
  9
$AUNITS
 70
     0
  9
$AUPREC
 70
     0
  9
$MENU
  1
ACAD
  9
$ELEVATION
 40
0.0
  9
$THICKNESS
 40
0.0
  9
$VIEWDIR
 10
0.0
 20
0.0
 30
1.0
  9
$LIMCHECK
 70
     0
  9
$BLIPMODE
 70
     1
  9
$CHAMFERA
 40
0.0
  9
$CHAMFERB
 40
0.0
  9
$FASTZOOM
 70
     1
  9
$SKPOLY
 70
     0
  9
$TDCREATE
 40
0.000000
  9
$TDUPDATE
 40
0.000000
  9
$TDINDWG
 40
0.0
  9
$TDUSRTIMER
 40
0.0
  9
$USRTIMER
 70
     1
  9
$ANGBASE
 50
0.0
  9
$ANGDIR
 70
     0
  9
$PDMODE
 70
     0
  9
$PDSIZE
 40
0.0
  9
$PLINEWID
 40
0.0
  9
$COORDS
 70
     0
  9
$USERI1
 70
     0
  9
$USERI2
 70
     0
  9
$USERI3
 70
     0
  9
$USERI4
 70
     0
  9
$USERI5
 70
     0
  9
$USERR1
 40
0.0
  9
$USERR2
 40
0.0
  9
$USERR3
 40
0.0
  9
$USERR4
 40
0.0
  9
$USERR5
 40
0.0
  0
ENDSEC
  0
SECTION
  2
TABLES
  0
TABLE
  2
LTYPE
 70
     9
  0
LTYPE
  2
CONTINUOUS
 70
    64
  3
Solid line
 72
    65
 73
     0
 40
0.0
  0
LTYPE
  2
DASHED
 70
    64
  3
__ __ __ __ __ __ __ __ __ __ __ __ __ __ __
 72
    65
 73
     2
 40
0.75
 49
0.5
 49
-0.25
  0
LTYPE
  2
HIDDEN
 70
    64
  3
_ _ _ _ _ _ _ _ _ _ _ _ _ _ _ _ _ _ _ _ _ _ _
 72
    65
 73
     2
 40
0.375
 49
0.25
 49
-0.125
  0
LTYPE
  2
DOT
 70
    64
  3
...............................................
 72
    65
 73
     2
 40
0.25
 49
0.0
 49
-0.25
  0
LTYPE
  2
DASHDOT
 70
    64
  3
__ . __ . __ . __ . __ . __ . __ . __ . __ . __
 72
    65
 73
     4
 40
1.0
 49
0.5
 49
-0.25
 49
0.0
 49
-0.25
  0
LTYPE
  2
DIVIDE
 70
    64
  3
__ . . __ . . __ . . __ . . __ . . __ . . __
 72
    65
 73
     6
 40
1.25
 49
0.5
 49
-0.25
 49
0.0
 49
-0.25
 49
0.0
 49
-0.25
  0
LTYPE
  2
CENTER
 70
    64
  3
____ _ ____ _ ____ _ ____ _ ____ _ ____ _ ____ 
 72
    65
 73
     4
 40
2.0
 49
1.25
 49
-0.25
 49
0.25
 49
-0.25
  0
LTYPE
  2
PHANTOM
 70
    64
  3
______  __  __  ______  __  __  ______  __  __ 
 72
    65
 73
     6
 40
2.5
 49
1.25
 49
-0.25
 49
0.25
 49
-0.25
 49
0.25
 49
-0.25
  0
LTYPE
  2
BORDER
 70
    64
  3
__ __ . __ __ . __ __ . __ __ . __ __ . __ __ .
 72
    65
 73
     6
 40
1.75
 49
0.5
 49
-0.25
 49
0.5
 49
-0.25
 49
0.0
 49
-0.25
  0
ENDTAB
  0
TABLE
  2
LAYER
 70
    16
  0
LAYER
  2
CSLAYER1
 70
    64
 62
     7
  6
CONTINUOUS
  0
LAYER
  2
CSLAYER2
 70
    64
 62
     7
  6
CONTINUOUS
  0
LAYER
  2
CSLAYER3
 70
    64
 62
     7
  6
CONTINUOUS
  0
LAYER
  2
CSLAYER4
 70
    64
 62
     7
  6
CONTINUOUS
  0
LAYER
  2
CSLAYER5
 70
    64
 62
     7
  6
CONTINUOUS
  0
LAYER
  2
CSLAYER6
 70
    64
 62
     7
  6
CONTINUOUS
  0
LAYER
  2
CSLAYER7
 70
    64
 62
     7
  6
CONTINUOUS
  0
LAYER
  2
CSLAYER8
 70
    64
 62
     7
  6
CONTINUOUS
  0
LAYER
  2
CSLAYER9
 70
    64
 62
     7
  6
CONTINUOUS
  0
LAYER
  2
CSLAYER10
 70
    64
 62
     7
  6
CONTINUOUS
  0
LAYER
  2
CSLAYER11
 70
    64
 62
     7
  6
CONTINUOUS
  0
LAYER
  2
CSLAYER12
 70
    64
 62
     7
  6
CONTINUOUS
  0
LAYER
  2
CSLAYER13
 70
    64
 62
     7
  6
CONTINUOUS
  0
LAYER
  2
CSLAYER14
 70
    64
 62
     7
  6
CONTINUOUS
  0
LAYER
  2
CSLAYER15
 70
    64
 62
     7
  6
CONTINUOUS
  0
LAYER
  2
CSLAYER16
 70
    64
 62
     7
  6
CONTINUOUS
  0
ENDTAB
  0
TABLE
  2
STYLE
 70
     1
  0
STYLE
  2
SX_FONT
 70
     0
 40
1.0
 41
1.0
 50
0.0
 71
     0
 42
1.0
  3
monotxt
  4
bigfont
  0
ENDTAB
  0
TABLE
  2
VIEW
 70
     0
  0
ENDTAB
  0
ENDSEC
  0
SECTION
  2
BLOCKS
  0
BLOCK
  8
CSLAYER1
  2
*D0000
 70
    65
 10
0.0
 20
0.0
 30
0.0
  0
LINE
  8
CSLAYER1
  6
CONTINUOUS
 62
     7
 10
85.296452
 20
172.015625
 11
85.296452
 21
177.225437
  0
LINE
  8
CSLAYER1
  6
CONTINUOUS
 62
     7
 10
110.296452
 20
172.015625
 11
110.296452
 21
177.225437
  0
LINE
  8
CSLAYER1
  6
CONTINUOUS
 62
     7
 10
85.296452
 20
176.225437
 11
110.296452
 21
176.225437
  0
LINE
  8
CSLAYER1
  6
CONTINUOUS
 62
     7
 10
85.296452
 20
176.225437
 11
89.160155
 21
177.260713
  0
LINE
  8
CSLAYER1
  6
CONTINUOUS
 62
     7
 10
85.296452
 20
176.225437
 11
89.160155
 21
175.190161
  0
LINE
  8
CSLAYER1
  6
CONTINUOUS
 62
     7
 10
110.296452
 20
176.225437
 11
106.432749
 21
177.260713
  0
LINE
  8
CSLAYER1
  6
CONTINUOUS
 62
     7
 10
110.296452
 20
176.225437
 11
106.432749
 21
175.190161
  0
TEXT
  8
CSLAYER1
 62
     7
 10
94.796455
 20
177.225433
 40
4.000000
 41
0.900000
  1
25
 50
0.000000
 51
0.000000
  7
SX_FONT
 72
     5
 11
100.796455
 21
177.225433
  0
ENDBLK
  8
0
  0
BLOCK
  8
CSLAYER1
  2
*D0001
 70
    65
 10
0.0
 20
0.0
 30
0.0
  0
LINE
  8
CSLAYER1
  6
CONTINUOUS
 62
     7
 10
116.296452
 20
151.015625
 11
121.324668
 21
151.015625
  0
LINE
  8
CSLAYER1
  6
CONTINUOUS
 62
     7
 10
116.296452
 20
166.015625
 11
121.324668
 21
166.015625
  0
LINE
  8
CSLAYER1
  6
CONTINUOUS
 62
     7
 10
120.324668
 20
151.015625
 11
120.324668
 21
166.015625
  0
LINE
  8
CSLAYER1
  6
CONTINUOUS
 62
     7
 10
120.324668
 20
151.015625
 11
119.289392
 21
154.879328
  0
LINE
  8
CSLAYER1
  6
CONTINUOUS
 62
     7
 10
120.324668
 20
151.015625
 11
121.359944
 21
154.879328
  0
LINE
  8
CSLAYER1
  6
CONTINUOUS
 62
     7
 10
120.324668
 20
166.015625
 11
119.289392
 21
162.151922
  0
LINE
  8
CSLAYER1
  6
CONTINUOUS
 62
     7
 10
120.324668
 20
166.015625
 11
121.359944
 21
162.151922
  0
TEXT
  8
CSLAYER1
 62
     7
 10
125.828476
 20
155.338058
 40
4.000000
 41
0.900000
  1
15
 50
90.000000
 51
0.000000
  7
SX_FONT
 72
     5
 11
125.828476
 21
161.338058
  0
ENDBLK
  8
0
  0
ENDSEC
  0
SECTION
  2
ENTITIES
  0
ARC
  8
CSLAYER2
  6
CONTINUOUS
 62
     7
 10
93.546452
 20
163.015625
 40
3.000000
 50
0.000000
 51
90.000000
  0
ARC
  8
CSLAYER2
  6
CONTINUOUS
 62
     7
 10
93.546452
 20
163.015625
 40
3.000000
 50
90.000000
 51
180.000000
  0
ARC
  8
CSLAYER2
  6
CONTINUOUS
 62
     7
 10
102.046452
 20
163.015625
 40
3.000000
 50
90.000000
 51
180.000000
  0
ARC
  8
CSLAYER2
  6
CONTINUOUS
 62
     7
 10
102.046452
 20
163.015625
 40
3.000000
 50
0.000000
 51
90.000000
  0
LINE
  8
CSLAYER2
  6
CONTINUOUS
 62
     7
 10
96.546452
 20
163.015625
 11
96.546452
 21
160.015625
  0
LINE
  8
CSLAYER2
  6
CONTINUOUS
 62
     7
 10
96.546452
 20
160.015625
 11
99.046452
 21
160.015625
  0
LINE
  8
CSLAYER2
  6
CONTINUOUS
 62
     7
 10
99.046452
 20
160.015625
 11
99.046452
 21
163.015625
  0
LINE
  8
CSLAYER2
  6
CONTINUOUS
 62
     7
 10
90.546452
 20
163.015625
 11
87.921452
 21
163.015625
  0
LINE
  8
CSLAYER2
  6
CONTINUOUS
 62
     7
 10
87.921452
 20
163.015625
 11
87.921452
 21
160.015625
  0
LINE
  8
CSLAYER2
  6
CONTINUOUS
 62
     7
 10
87.921452
 20
160.015625
 11
85.296452
 21
160.015625
  0
LINE
  8
CSLAYER2
  6
CONTINUOUS
 62
     7
 10
85.296452
 20
160.015625
 11
85.296452
 21
151.015625
  0
LINE
  8
CSLAYER2
  6
CONTINUOUS
 62
     7
 10
85.296452
 20
151.015625
 11
110.296452
 21
151.015625
  0
LINE
  8
CSLAYER2
  6
CONTINUOUS
 62
     7
 10
110.296452
 20
151.015625
 11
110.296452
 21
160.015625
  0
LINE
  8
CSLAYER2
  6
CONTINUOUS
 62
     7
 10
110.296452
 20
160.015625
 11
107.671452
 21
160.015625
  0
LINE
  8
CSLAYER2
  6
CONTINUOUS
 62
     7
 10
107.671452
 20
160.015625
 11
107.671452
 21
163.015625
  0
LINE
  8
CSLAYER2
  6
CONTINUOUS
 62
     7
 10
107.671452
 20
163.015625
 11
105.046452
 21
163.015625
  0
TEXT
  8
CSLAYER1
 62
     7
 10
85.536484
 20
90.454178
 40
10.000000
 41
0.630000
  1
FM-2003
 50
0.000000
 51
0.000000
  7
SX_FONT
 72
     5
 11
127.536484
 21
90.454178
  0
DIMENSION
  8
CSLAYER1
 62
     7
  2
*D0000
 10
110.296452
 20
176.225437
 11
97.796455
 21
177.225433
 13
85.296452
 23
171.015625
 14
110.296452
 24
171.015625
 70
1
  0
DIMENSION
  8
CSLAYER1
 62
     7
  2
*D0001
 10
120.324668
 20
166.015625
 11
125.828476
 21
158.338058
 13
115.296452
 23
151.015625
 14
115.296452
 24
166.015625
 50
90.000000
 70
1
  0
TEXT
  8
CSLAYER1
 62
     7
 10
139.379486
 20
90.181854
 40
10.000000
 41
0.642857
  1
25x15
 50
0.000000
 51
0.000000
  7
SX_FONT
 72
     5
 11
169.379486
 21
90.181854
  0
TEXT
  8
CSLAYER1
 62
     7
 10
86.140472
 20
79.408211
 40
5.000000
 41
0.612766
  1
カタログ Vol. 1  P43
 50
0.000000
 51
0.000000
  7
SX_FONT
 72
     5
 11
134.140472
 21
79.408211
  0
TEXT
  8
CSLAYER1
 62
     7
 10
86.382002
 20
69.864402
 40
4.960742
 41
0.729057
  1
ホ%%dケットカタロク゛ Vol. 1 P16
 50
0.000000
 51
0.000000
  7
SX_FONT
 72
     5
 11
161.126360
 21
69.864402
  0
ENDSEC
  0
EOF
