  0
SECTION
  2
HEADER
  9
$ACADVER
  1
AC1006
  9
$INSBASE
 10
77.483887
 20
175.245361
 30
0.0
  9
$EXTMIN
 10
77.483887
 20
175.245361
  9
$EXTMAX
 10
287.483887
 20
472.245361
  9
$LIMMIN
 10
77.483887
 20
175.245361
  9
$LIMMAX
 10
287.483887
 20
472.245361
  9
$VIEWCTR
 10
182.483887
 20
323.745361
  9
$VIEWSIZE
 40
297.000000
  9
$SNAPMODE
 70
     0
  9
$SNAPUNIT
 10
1.0
 20
1.0
  9
$SNAPBASE
 10
0.0
 20
0.0
  9
$SNAPANG
 50
0.0
  9
$SNAPSTYLE
 70
     0
  9
$SNAPISOPAIR
 70
     0
  9
$GRIDMODE
 70
     0
  9
$GRIDUNIT
 10
0.0
 20
0.0
  9
$ORTHOMODE
 70
     0
  9
$REGENMODE
 70
     1
  9
$FILLMODE
 70
     1
  9
$QTEXTMODE
 70
     0
  9
$DRAGMODE
 70
     2
  9
$LTSCALE
 40
15.000000
  9
$OSMODE
 70
     0
  9
$ATTMODE
 70
     1
  9
$TEXTSIZE
 40
0.2
  9
$TRACEWID
 40
0.05
  9
$TEXTSTYLE
  7
STANDARD
  9
$CLAYER
  8
CSLAYER3
  9
$CELTYPE
  6
BYLAYER
  9
$CECOLOR
 62
   256
  9
$DIMSCALE
 40
1.0
  9
$DIMASZ
 40
0.18
  9
$DIMEXO
 40
0.0625
  9
$DIMDLI
 40
0.38
  9
$DIMRND
 40
0.0
  9
$DIMDLE
 40
0.0
  9
$DIMEXE
 40
0.18
  9
$DIMTP
 40
0.0
  9
$DIMTM
 40
0.0
  9
$DIMTXT
 40
0.18
  9
$DIMCEN
 40
0.09
  9
$DIMTSZ
 40
0.0
  9
$DIMTOL
 70
     0
  9
$DIMLIM
 70
     0
  9
$DIMTIH
 70
     1
  9
$DIMTOH
 70
     1
  9
$DIMSE1
 70
     0
  9
$DIMSE2
 70
     0
  9
$DIMTAD
 70
     0
  9
$DIMZIN
 70
     0
  9
$DIMBLK
  1

  9
$LUNITS
 70
     2
  9
$LUPREC
 70
     4
  9
$AXISMODE
 70
     0
  9
$AXISUNIT
 10
0.0
 20
0.0
  9
$SKETCHINC
 40
0.1
  9
$FILLETRAD
 40
0.0
  9
$AUNITS
 70
     0
  9
$AUPREC
 70
     0
  9
$MENU
  1
ACAD
  9
$ELEVATION
 40
0.0
  9
$THICKNESS
 40
0.0
  9
$VIEWDIR
 10
0.0
 20
0.0
 30
1.0
  9
$LIMCHECK
 70
     0
  9
$BLIPMODE
 70
     1
  9
$CHAMFERA
 40
0.0
  9
$CHAMFERB
 40
0.0
  9
$FASTZOOM
 70
     1
  9
$SKPOLY
 70
     0
  9
$TDCREATE
 40
0.000000
  9
$TDUPDATE
 40
0.000000
  9
$TDINDWG
 40
0.0
  9
$TDUSRTIMER
 40
0.0
  9
$USRTIMER
 70
     1
  9
$ANGBASE
 50
0.0
  9
$ANGDIR
 70
     0
  9
$PDMODE
 70
     0
  9
$PDSIZE
 40
0.0
  9
$PLINEWID
 40
0.0
  9
$COORDS
 70
     0
  9
$USERI1
 70
     0
  9
$USERI2
 70
     0
  9
$USERI3
 70
     0
  9
$USERI4
 70
     0
  9
$USERI5
 70
     0
  9
$USERR1
 40
0.0
  9
$USERR2
 40
0.0
  9
$USERR3
 40
0.0
  9
$USERR4
 40
0.0
  9
$USERR5
 40
0.0
  0
ENDSEC
  0
SECTION
  2
TABLES
  0
TABLE
  2
LTYPE
 70
     9
  0
LTYPE
  2
CONTINUOUS
 70
    64
  3
Solid line
 72
    65
 73
     0
 40
0.0
  0
LTYPE
  2
DASHED
 70
    64
  3
__ __ __ __ __ __ __ __ __ __ __ __ __ __ __
 72
    65
 73
     2
 40
0.75
 49
0.5
 49
-0.25
  0
LTYPE
  2
HIDDEN
 70
    64
  3
_ _ _ _ _ _ _ _ _ _ _ _ _ _ _ _ _ _ _ _ _ _ _
 72
    65
 73
     2
 40
0.375
 49
0.25
 49
-0.125
  0
LTYPE
  2
DOT
 70
    64
  3
...............................................
 72
    65
 73
     2
 40
0.25
 49
0.0
 49
-0.25
  0
LTYPE
  2
DASHDOT
 70
    64
  3
__ . __ . __ . __ . __ . __ . __ . __ . __ . __
 72
    65
 73
     4
 40
1.0
 49
0.5
 49
-0.25
 49
0.0
 49
-0.25
  0
LTYPE
  2
DIVIDE
 70
    64
  3
__ . . __ . . __ . . __ . . __ . . __ . . __
 72
    65
 73
     6
 40
1.25
 49
0.5
 49
-0.25
 49
0.0
 49
-0.25
 49
0.0
 49
-0.25
  0
LTYPE
  2
CENTER
 70
    64
  3
____ _ ____ _ ____ _ ____ _ ____ _ ____ _ ____ 
 72
    65
 73
     4
 40
2.0
 49
1.25
 49
-0.25
 49
0.25
 49
-0.25
  0
LTYPE
  2
PHANTOM
 70
    64
  3
______  __  __  ______  __  __  ______  __  __ 
 72
    65
 73
     6
 40
2.5
 49
1.25
 49
-0.25
 49
0.25
 49
-0.25
 49
0.25
 49
-0.25
  0
LTYPE
  2
BORDER
 70
    64
  3
__ __ . __ __ . __ __ . __ __ . __ __ . __ __ .
 72
    65
 73
     6
 40
1.75
 49
0.5
 49
-0.25
 49
0.5
 49
-0.25
 49
0.0
 49
-0.25
  0
ENDTAB
  0
TABLE
  2
LAYER
 70
    16
  0
LAYER
  2
CSLAYER1
 70
    64
 62
     7
  6
CONTINUOUS
  0
LAYER
  2
CSLAYER2
 70
    64
 62
     7
  6
CONTINUOUS
  0
LAYER
  2
CSLAYER3
 70
    64
 62
     7
  6
CONTINUOUS
  0
LAYER
  2
CSLAYER4
 70
    64
 62
     7
  6
CONTINUOUS
  0
LAYER
  2
CSLAYER5
 70
    64
 62
     7
  6
CONTINUOUS
  0
LAYER
  2
CSLAYER6
 70
    64
 62
     7
  6
CONTINUOUS
  0
LAYER
  2
CSLAYER7
 70
    64
 62
     7
  6
CONTINUOUS
  0
LAYER
  2
CSLAYER8
 70
    64
 62
     7
  6
CONTINUOUS
  0
LAYER
  2
CSLAYER9
 70
    64
 62
     7
  6
CONTINUOUS
  0
LAYER
  2
CSLAYER10
 70
    64
 62
     7
  6
CONTINUOUS
  0
LAYER
  2
CSLAYER11
 70
    64
 62
     7
  6
CONTINUOUS
  0
LAYER
  2
CSLAYER12
 70
    64
 62
     7
  6
CONTINUOUS
  0
LAYER
  2
CSLAYER13
 70
    64
 62
     7
  6
CONTINUOUS
  0
LAYER
  2
CSLAYER14
 70
    64
 62
     7
  6
CONTINUOUS
  0
LAYER
  2
CSLAYER15
 70
    64
 62
     7
  6
CONTINUOUS
  0
LAYER
  2
CSLAYER16
 70
    64
 62
     7
  6
CONTINUOUS
  0
ENDTAB
  0
TABLE
  2
STYLE
 70
     1
  0
STYLE
  2
SX_FONT
 70
     0
 40
1.0
 41
1.0
 50
0.0
 71
     0
 42
1.0
  3
monotxt
  4
bigfont
  0
ENDTAB
  0
TABLE
  2
VIEW
 70
     0
  0
ENDTAB
  0
ENDSEC
  0
SECTION
  2
BLOCKS
  0
BLOCK
  8
CSLAYER1
  2
*D0000
 70
    65
 10
0.0
 20
0.0
 30
0.0
  0
LINE
  8
CSLAYER1
  6
CONTINUOUS
 62
     7
 10
65.493766
 20
177.745115
 11
65.493766
 21
183.745115
  0
LINE
  8
CSLAYER1
  6
CONTINUOUS
 62
     7
 10
105.493766
 20
177.745115
 11
105.493766
 21
183.745115
  0
LINE
  8
CSLAYER1
  6
CONTINUOUS
 62
     7
 10
65.493766
 20
182.745115
 11
105.493766
 21
182.745115
  0
LINE
  8
CSLAYER1
  6
CONTINUOUS
 62
     7
 10
65.493766
 20
182.745115
 11
69.357469
 21
183.780392
  0
LINE
  8
CSLAYER1
  6
CONTINUOUS
 62
     7
 10
65.493766
 20
182.745115
 11
69.357469
 21
181.709839
  0
LINE
  8
CSLAYER1
  6
CONTINUOUS
 62
     7
 10
105.493766
 20
182.745115
 11
101.630063
 21
183.780392
  0
LINE
  8
CSLAYER1
  6
CONTINUOUS
 62
     7
 10
105.493766
 20
182.745115
 11
101.630063
 21
181.709839
  0
TEXT
  8
CSLAYER1
 62
     7
 10
82.493767
 20
183.745117
 40
4.000000
 41
0.900000
  1
40
 50
0.000000
 51
0.000000
  7
SX_FONT
 72
     5
 11
88.493767
 21
183.745117
  0
ENDBLK
  8
0
  0
BLOCK
  8
CSLAYER1
  2
*D0001
 70
    65
 10
0.0
 20
0.0
 30
0.0
  0
LINE
  8
CSLAYER1
  6
CONTINUOUS
 62
     7
 10
110.864616
 20
132.465574
 11
116.864616
 21
132.465574
  0
LINE
  8
CSLAYER1
  6
CONTINUOUS
 62
     7
 10
110.864616
 20
172.465574
 11
116.864616
 21
172.465574
  0
LINE
  8
CSLAYER1
  6
CONTINUOUS
 62
     7
 10
115.864616
 20
132.465574
 11
115.864616
 21
172.465574
  0
LINE
  8
CSLAYER1
  6
CONTINUOUS
 62
     7
 10
115.864616
 20
132.465574
 11
114.829339
 21
136.329278
  0
LINE
  8
CSLAYER1
  6
CONTINUOUS
 62
     7
 10
115.864616
 20
132.465574
 11
116.899892
 21
136.329278
  0
LINE
  8
CSLAYER1
  6
CONTINUOUS
 62
     7
 10
115.864616
 20
172.465574
 11
114.829339
 21
168.601871
  0
LINE
  8
CSLAYER1
  6
CONTINUOUS
 62
     7
 10
115.864616
 20
172.465574
 11
116.899892
 21
168.601871
  0
TEXT
  8
CSLAYER1
 62
     7
 10
120.967155
 20
149.129883
 40
4.000000
 41
0.900000
  1
40
 50
90.000000
 51
0.000000
  7
SX_FONT
 72
     5
 11
120.967155
 21
155.129883
  0
ENDBLK
  8
0
  0
ENDSEC
  0
SECTION
  2
ENTITIES
  0
CIRCLE
  8
CSLAYER1
  6
CONTINUOUS
 62
     7
 10
85.493766
 20
152.465574
 40
20.000000
  0
DIMENSION
  8
CSLAYER1
 62
     7
  2
*D0000
 10
105.493766
 20
182.745115
 11
85.493767
 21
183.745117
 13
65.493766
 23
176.745115
 14
105.493766
 24
176.745115
 70
1
  0
DIMENSION
  8
CSLAYER1
 62
     7
  2
*D0001
 10
115.864616
 20
172.465574
 11
120.967155
 21
152.129883
 13
109.864616
 23
132.465574
 14
109.864616
 24
172.465574
 50
90.000000
 70
1
  0
TEXT
  8
CSLAYER1
 62
     7
 10
64.712433
 20
69.466347
 40
12.000000
 41
0.695652
  1
FHR-5006
 50
0.000000
 51
0.000000
  7
SX_FONT
 72
     5
 11
128.712433
 21
69.466347
  0
TEXT
  8
CSLAYER1
 62
     7
 10
64.996910
 20
53.500932
 40
5.547002
 41
0.589931
  1
カタログ Vol. 1  P83
 50
0.000000
 51
0.000000
  7
SX_FONT
 72
     5
 11
116.263695
 21
53.500932
  0
TEXT
  8
CSLAYER1
 62
     7
 10
138.523392
 20
69.134537
 40
12.000000
 41
0.714286
  1
40x40
 50
0.000000
 51
0.000000
  7
SX_FONT
 72
     5
 11
178.523392
 21
69.134537
  0
TEXT
  8
CSLAYER1
 62
     7
 10
64.436346
 20
37.719764
 40
4.960742
 41
0.729057
  1
ホ%%dケットカタロク゛ Vol. 1 P57
 50
0.000000
 51
0.000000
  7
SX_FONT
 72
     5
 11
139.180704
 21
37.719764
  0
ENDSEC
  0
EOF
